  0
SECTION
  2
HEADER
  9
$ACADVER
  1
AC1018
  9
$ACADMAINTVER
 70
     0
  9
$DWGCODEPAGE
  3
ANSI_1250
  9
$INSBASE
 10
0.0
 20
0.0
 30
0.0
  9
$EXTMIN
 10
0.0
 20
0.0
 30
0.0
  9
$EXTMAX
 10
420.0
 20
297.0
 30
0.0
  9
$LIMMIN
 10
0.0
 20
0.0
  9
$LIMMAX
 10
420.0
 20
297.0
  9
$ORTHOMODE
 70
     0
  9
$REGENMODE
 70
     1
  9
$FILLMODE
 70
     1
  9
$QTEXTMODE
 70
     0
  9
$MIRRTEXT
 70
     1
  9
$LTSCALE
 40
1.0
  9
$ATTMODE
 70
     1
  9
$TEXTSIZE
 40
2.5
  9
$TRACEWID
 40
1.0
  9
$TEXTSTYLE
  7
STANDARD
  9
$CLAYER
  8
0
  9
$CELTYPE
  6
ByLayer
  9
$CECOLOR
 62
   256
  9
$CELTSCALE
 40
1.0
  9
$DISPSILH
 70
     0
  9
$DIMSCALE
 40
1.0
  9
$DIMASZ
 40
2.5
  9
$DIMEXO
 40
0.0
  9
$DIMDLI
 40
3.75
  9
$DIMRND
 40
0.0
  9
$DIMDLE
 40
0.0
  9
$DIMEXE
 40
1.0
  9
$DIMTP
 40
0.0
  9
$DIMTM
 40
0.0
  9
$DIMTXT
 40
2.5
  9
$DIMCEN
 40
2.5
  9
$DIMTSZ
 40
0.0
  9
$DIMTOL
 70
     0
  9
$DIMLIM
 70
     0
  9
$DIMTIH
 70
     1
  9
$DIMTOH
 70
     1
  9
$DIMSE1
 70
     0
  9
$DIMSE2
 70
     0
  9
$DIMTAD
 70
     1
  9
$DIMZIN
 70
     1
  9
$DIMBLK
  1

  9
$DIMASO
 70
     1
  9
$DIMSHO
 70
     1
  9
$DIMPOST
  1

  9
$DIMAPOST
  1

  9
$DIMALT
 70
     0
  9
$DIMALTD
 70
     3
  9
$DIMALTF
 40
0.0393700787
  9
$DIMLFAC
 40
1.0
  9
$DIMTOFL
 70
     1
  9
$DIMTVP
 40
0.0
  9
$DIMTIX
 70
     0
  9
$DIMSOXD
 70
     0
  9
$DIMSAH
 70
     0
  9
$DIMBLK1
  1

  9
$DIMBLK2
  1

  9
$DIMSTYLE
  2
ISO-25
  9
$DIMCLRD
 70
     0
  9
$DIMCLRE
 70
     0
  9
$DIMCLRT
 70
     0
  9
$DIMTFAC
 40
1.0
  9
$DIMGAP
 40
1.524
  9
$DIMJUST
 70
     0
  9
$DIMSD1
 70
     0
  9
$DIMSD2
 70
     0
  9
$DIMTOLJ
 70
     0
  9
$DIMTZIN
 70
     1
  9
$DIMALTZ
 70
     0
  9
$DIMALTTZ
 70
     0
  9
$DIMUPT
 70
     0
  9
$DIMDEC
 70
     2
  9
$DIMTDEC
 70
     2
  9
$DIMALTU
 70
     2
  9
$DIMALTTD
 70
     3
  9
$DIMTXSTY
  7
STANDARD
  9
$DIMAUNIT
 70
     0
  9
$DIMADEC
 70
     2
  9
$DIMALTRND
 40
0.0
  9
$DIMAZIN
 70
     0
  9
$DIMDSEP
 70
    44
  9
$DIMATFIT
 70
     3
  9
$DIMFRAC
 70
     0
  9
$DIMLDRBLK
  1

  9
$DIMLUNIT
 70
     2
  9
$DIMLWD
 70
    -2
  9
$DIMLWE
 70
    -2
  9
$DIMTMOVE
 70
     0
  9
$LUNITS
 70
     2
  9
$LUPREC
 70
     0
  9
$SKETCHINC
 40
1.0
  9
$FILLETRAD
 40
10.0
  9
$AUNITS
 70
     0
  9
$AUPREC
 70
     2
  9
$MENU
  1
.
  9
$ELEVATION
 40
0.0
  9
$PELEVATION
 40
0.0
  9
$THICKNESS
 40
0.0
  9
$LIMCHECK
 70
     0
  9
$CHAMFERA
 40
0.0
  9
$CHAMFERB
 40
0.0
  9
$CHAMFERC
 40
0.0
  9
$CHAMFERD
 40
0.0
  9
$SKPOLY
 70
     0
  9
$TDCREATE
 40
2457275.562457442
  9
$TDUCREATE
 40
2457275.479124109
  9
$TDUPDATE
 40
2457275.562458553
  9
$TDUUPDATE
 40
2457275.47912522
  9
$TDINDWG
 40
0.0000000116
  9
$TDUSRTIMER
 40
0.0000000116
  9
$USRTIMER
 70
     1
  9
$ANGBASE
 50
0.0
  9
$ANGDIR
 70
     0
  9
$PDMODE
 70
     0
  9
$PDSIZE
 40
-1.0
  9
$PLINEWID
 40
0.0
  9
$SPLFRAME
 70
     0
  9
$SPLINETYPE
 70
     6
  9
$SPLINESEGS
 70
     8
  9
$HANDSEED
  5
550
  9
$SURFTAB1
 70
     6
  9
$SURFTAB2
 70
     6
  9
$SURFTYPE
 70
     6
  9
$SURFU
 70
     6
  9
$SURFV
 70
     6
  9
$UCSBASE
  2

  9
$UCSNAME
  2

  9
$UCSORG
 10
0.0
 20
0.0
 30
0.0
  9
$UCSXDIR
 10
1.0
 20
0.0
 30
0.0
  9
$UCSYDIR
 10
0.0
 20
1.0
 30
0.0
  9
$UCSORTHOREF
  2

  9
$UCSORTHOVIEW
 70
     0
  9
$UCSORGTOP
 10
0.0
 20
0.0
 30
0.0
  9
$UCSORGBOTTOM
 10
0.0
 20
0.0
 30
0.0
  9
$UCSORGLEFT
 10
0.0
 20
0.0
 30
0.0
  9
$UCSORGRIGHT
 10
0.0
 20
0.0
 30
0.0
  9
$UCSORGFRONT
 10
0.0
 20
0.0
 30
0.0
  9
$UCSORGBACK
 10
0.0
 20
0.0
 30
0.0
  9
$PUCSBASE
  2

  9
$PUCSNAME
  2

  9
$PUCSORG
 10
0.0
 20
0.0
 30
0.0
  9
$PUCSXDIR
 10
1.0
 20
0.0
 30
0.0
  9
$PUCSYDIR
 10
0.0
 20
1.0
 30
0.0
  9
$PUCSORTHOREF
  2

  9
$PUCSORTHOVIEW
 70
     0
  9
$PUCSORGTOP
 10
0.0
 20
0.0
 30
0.0
  9
$PUCSORGBOTTOM
 10
0.0
 20
0.0
 30
0.0
  9
$PUCSORGLEFT
 10
0.0
 20
0.0
 30
0.0
  9
$PUCSORGRIGHT
 10
0.0
 20
0.0
 30
0.0
  9
$PUCSORGFRONT
 10
0.0
 20
0.0
 30
0.0
  9
$PUCSORGBACK
 10
0.0
 20
0.0
 30
0.0
  9
$USERI1
 70
     0
  9
$USERI2
 70
     0
  9
$USERI3
 70
     0
  9
$USERI4
 70
     0
  9
$USERI5
 70
     0
  9
$USERR1
 40
0.0
  9
$USERR2
 40
0.0
  9
$USERR3
 40
0.0
  9
$USERR4
 40
0.0
  9
$USERR5
 40
0.0
  9
$WORLDVIEW
 70
     1
  9
$SHADEDGE
 70
     3
  9
$SHADEDIF
 70
    70
  9
$TILEMODE
 70
     1
  9
$MAXACTVP
 70
    64
  9
$PINSBASE
 10
0.0
 20
0.0
 30
0.0
  9
$PLIMCHECK
 70
     0
  9
$PEXTMIN
 10
1.0000000000E+20
 20
1.0000000000E+20
 30
1.0000000000E+20
  9
$PEXTMAX
 10
-1.0000000000E+20
 20
-1.0000000000E+20
 30
-1.0000000000E+20
  9
$PLIMMIN
 10
0.0
 20
0.0
  9
$PLIMMAX
 10
420.0
 20
297.0
  9
$UNITMODE
 70
     0
  9
$VISRETAIN
 70
     1
  9
$PLINEGEN
 70
     0
  9
$PSLTSCALE
 70
     1
  9
$TREEDEPTH
 70
  3020
  9
$CMLSTYLE
  2
Standard
  9
$CMLJUST
 70
     0
  9
$CMLSCALE
 40
20.0
  9
$PROXYGRAPHICS
 70
     1
  9
$MEASUREMENT
 70
     1
  9
$CELWEIGHT
370
    -1
  9
$ENDCAPS
280
     0
  9
$JOINSTYLE
280
     0
  9
$LWDISPLAY
290
     1
  9
$INSUNITS
 70
     4
  9
$HYPERLINKBASE
  1

  9
$STYLESHEET
  1

  9
$XEDIT
290
     1
  9
$CEPSNTYPE
380
     0
  9
$PSTYLEMODE
290
     1
  9
$FINGERPRINTGUID
  2
{5816E098-057B-4212-8B3E-6BFA3B237792}
  9
$VERSIONGUID
  2
{FAEB1C32-E019-11D5-929B-00C0DF256EC4}
  9
$EXTNAMES
290
     1
  9
$PSVPSCALE
 40
0.0
  9
$OLESTARTUP
290
     0
  9
$SORTENTS
280
   127
  9
$INDEXCTL
280
     0
  9
$HIDETEXT
280
     1
  9
$XCLIPFRAME
290
     0
  9
$HALOGAP
280
     0
  9
$OBSCOLOR
 70
   257
  9
$OBSLTYPE
280
     0
  9
$INTERSECTIONDISPLAY
280
     0
  9
$INTERSECTIONCOLOR
 70
   257
  9
$DIMASSOC
280
     2
  9
$PROJECTNAME
  1

  0
ENDSEC
  0
SECTION
  2
CLASSES
  0
CLASS
  1
ACDBDICTIONARYWDFLT
  2
AcDbDictionaryWithDefault
  3
ObjectDBX Classes
 90
        0
 91
        4
280
     0
281
     0
  0
CLASS
  1
VISUALSTYLE
  2
AcDbVisualStyle
  3
ObjectDBX Classes
 90
     4095
 91
        4
280
     0
281
     0
  0
CLASS
  1
MATERIAL
  2
AcDbMaterial
  3
ObjectDBX Classes
 90
     1153
 91
        4
280
     0
281
     0
  0
CLASS
  1
SCALE
  2
AcDbScale
  3
ObjectDBX Classes
 90
     1153
 91
        4
280
     0
281
     0
  0
CLASS
  1
TABLESTYLE
  2
AcDbTableStyle
  3
ObjectDBX Classes
 90
     4095
 91
        4
280
     0
281
     0
  0
CLASS
  1
MLEADERSTYLE
  2
AcDbMLeaderStyle
  3
ACDB_MLEADERSTYLE_CLASS
 90
     4095
 91
        4
280
     0
281
     0
  0
CLASS
  1
SUN
  2
AcDbSun
  3
SCENEOE
 90
     1153
 91
        4
280
     0
281
     0
  0
CLASS
  1
DICTIONARYVAR
  2
AcDbDictionaryVar
  3
ObjectDBX Classes
 90
        0
 91
        4
280
     0
281
     0
  0
CLASS
  1
CELLSTYLEMAP
  2
AcDbCellStyleMap
  3
ObjectDBX Classes
 90
     1152
 91
        4
280
     0
281
     0
  0
ENDSEC
  0
SECTION
  2
TABLES
  0
TABLE
  2
VPORT
  5
8
330
0
100
AcDbSymbolTable
 70
     1
  0
VPORT
  5
29
330
8
100
AcDbSymbolTableRecord
100
AcDbViewportTableRecord
  2
*Active
 70
     0
 10
0.0
 20
0.0
 11
1.0
 21
1.0
 12
210.0
 22
148.5
 13
0.0
 23
0.0
 14
10.0
 24
10.0
 15
10.0
 25
10.0
 16
0.0
 26
0.0
 36
1.0
 17
0.0
 27
0.0
 37
0.0
 40
297.0
 41
1.4141414141
 42
50.0
 43
0.0
 44
0.0
 50
0.0
 51
0.0
 71
     0
 72
  2000
 73
     1
 74
     3
 75
     0
 76
     0
 77
     0
 78
     0
281
     0
 65
     1
110
0.0
120
0.0
130
0.0
111
1.0
121
0.0
131
0.0
112
0.0
122
1.0
132
0.0
 79
     0
146
0.0
  0
ENDTAB
  0
TABLE
  2
LTYPE
  5
5
330
0
100
AcDbSymbolTable
 70
    12
  0
LTYPE
  5
14
330
5
100
AcDbSymbolTableRecord
100
AcDbLinetypeTableRecord
  2
ByBlock
 70
     0
  3

 72
    65
 73
     0
 40
0.0
  0
LTYPE
  5
15
330
5
100
AcDbSymbolTableRecord
100
AcDbLinetypeTableRecord
  2
ByLayer
 70
     0
  3

 72
    65
 73
     0
 40
0.0
  0
LTYPE
  5
16
330
5
100
AcDbSymbolTableRecord
100
AcDbLinetypeTableRecord
  2
Continuous
 70
     0
  3
Solid line
 72
    65
 73
     0
 40
0.0
  0
LTYPE
  5
6E
330
5
100
AcDbSymbolTableRecord
100
AcDbLinetypeTableRecord
  2
SLD-Plná
 70
     0
  3
SolidWorks Line Style
 72
    65
 73
     0
 40
0.0
  0
LTYPE
  5
6F
330
5
100
AcDbSymbolTableRecord
100
AcDbLinetypeTableRecord
  2
SLD-Čárkovaná
 70
     0
  3
SolidWorks Line Style
 72
    65
 73
     2
 40
1.905
 49
1.27
 74
     0
 49
-0.635
 74
     0
  0
LTYPE
  5
70
330
5
100
AcDbSymbolTableRecord
100
AcDbLinetypeTableRecord
  2
SLD-Dvojitě-čerchovaná
 70
     0
  3
SolidWorks Line Style
 72
    65
 73
     6
 40
12.7
 49
6.35
 74
     0
 49
-1.27
 74
     0
 49
1.27
 74
     0
 49
-1.27
 74
     0
 49
1.27
 74
     0
 49
-1.27
 74
     0
  0
LTYPE
  5
71
330
5
100
AcDbSymbolTableRecord
100
AcDbLinetypeTableRecord
  2
SLD-Čerchovaná
 70
     0
  3
SolidWorks Line Style
 72
    65
 73
     4
 40
10.16
 49
6.35
 74
     0
 49
-1.27
 74
     0
 49
1.27
 74
     0
 49
-1.27
 74
     0
  0
LTYPE
  5
72
330
5
100
AcDbSymbolTableRecord
100
AcDbLinetypeTableRecord
  2
SLD-Osa
 70
     0
  3
SolidWorks Line Style
 72
    65
 73
     4
 40
19.05
 49
15.24
 74
     0
 49
-1.27
 74
     0
 49
1.27
 74
     0
 49
-1.27
 74
     0
  0
LTYPE
  5
73
330
5
100
AcDbSymbolTableRecord
100
AcDbLinetypeTableRecord
  2
SLD-Tečkovaná
 70
     0
  3
SolidWorks Line Style
 72
    65
 73
     2
 40
0.635
 49
0.0
 74
     0
 49
-0.635
 74
     0
  0
LTYPE
  5
74
330
5
100
AcDbSymbolTableRecord
100
AcDbLinetypeTableRecord
  2
SLD-Hrubá-tenká-čerchovaná
 70
     0
  3
SolidWorks Line Style
 72
    65
 73
     4
 40
10.16
 49
6.35
 74
     0
 49
-1.27
 74
     0
 49
1.27
 74
     0
 49
-1.27
 74
     0
  0
LTYPE
  5
75
330
5
100
AcDbSymbolTableRecord
100
AcDbLinetypeTableRecord
  2
SLD-Řez-1
 70
     0
  3
SolidWorks Line Style
 72
    65
 73
     4
 40
8.128
 49
5.08
 74
     0
 49
-1.016
 74
     0
 49
1.016
 74
     0
 49
-1.016
 74
     0
  0
LTYPE
  5
76
330
5
100
AcDbSymbolTableRecord
100
AcDbLinetypeTableRecord
  2
SLD-Řez-2
 70
     0
  3
SolidWorks Line Style
 72
    65
 73
     2
 40
5080.0
 49
0.0
 74
     0
 49
-5080.0
 74
     0
  0
LTYPE
  5
77
330
5
100
AcDbSymbolTableRecord
100
AcDbLinetypeTableRecord
  2
SLD-řez3
 70
     0
  3
SolidWorks Line Style
 72
    65
 73
     4
 40
9.144
 49
4.572
 74
     0
 49
-1.524
 74
     0
 49
1.524
 74
     0
 49
-1.524
 74
     0
  0
LTYPE
  5
78
330
5
100
AcDbSymbolTableRecord
100
AcDbLinetypeTableRecord
  2
SLD-čárkovaná-dlouhá
 70
     0
  3
SolidWorks Line Style
 72
    65
 73
     2
 40
2.54
 49
1.27
 74
     0
 49
-1.27
 74
     0
  0
ENDTAB
  0
TABLE
  2
LAYER
  5
2
330
0
100
AcDbSymbolTable
 70
    26
  0
LAYER
  5
10
330
2
100
AcDbSymbolTableRecord
100
AcDbLayerTableRecord
  2
0
 70
     0
 62
     7
  6
Continuous
370
    -3
390
F
  0
LAYER
  5
79
330
2
100
AcDbSymbolTableRecord
100
AcDbLayerTableRecord
  2
SLD-0
 70
     0
 62
     1
  6
SLD-čárkovaná-dlouhá
370
    -3
390
F
  0
LAYER
  5
7A
330
2
100
AcDbSymbolTableRecord
100
AcDbLayerTableRecord
  2
POČÁTEK
 70
     0
 62
    34
  6
SLD-Plná
370
    -3
390
F
  0
LAYER
  5
7B
330
2
100
AcDbSymbolTableRecord
100
AcDbLayerTableRecord
  2
OBRYS
 70
     0
 62
     7
  6
SLD-Plná
370
    15
390
F
  0
LAYER
  5
7C
330
2
100
AcDbSymbolTableRecord
100
AcDbLayerTableRecord
  2
SRAFY
 70
     0
 62
     2
  6
Continuous
370
    -1
390
F
  0
LAYER
  5
7D
330
2
100
AcDbSymbolTableRecord
100
AcDbLayerTableRecord
  2
KOTY
 70
     0
 62
    82
  6
SLD-Plná
370
    -3
390
F
  0
LAYER
  5
7E
330
2
100
AcDbSymbolTableRecord
100
AcDbLayerTableRecord
  2
OSY
 70
     0
 62
     1
  6
SLD-Osa
370
    -3
390
F
  0
LAYER
  5
7F
330
2
100
AcDbSymbolTableRecord
100
AcDbLayerTableRecord
  2
REZY
 70
     0
 62
     1
  6
SLD-Osa
370
    -3
390
F
  0
LAYER
  5
80
330
2
100
AcDbSymbolTableRecord
100
AcDbLayerTableRecord
  2
TENKA
 70
     0
 62
   131
  6
Continuous
370
    -1
390
F
  0
LAYER
  5
81
330
2
100
AcDbSymbolTableRecord
100
AcDbLayerTableRecord
  2
SKRYTE
 70
     0
 62
     4
  6
SLD-čárkovaná-dlouhá
370
    -3
390
F
  0
LAYER
  5
82
330
2
100
AcDbSymbolTableRecord
100
AcDbLayerTableRecord
  2
TEXT
 70
     0
 62
    40
  6
SLD-Plná
370
    -3
390
F
  0
LAYER
  5
83
330
2
100
AcDbSymbolTableRecord
100
AcDbLayerTableRecord
  2
STŘEDOVÉ
 70
     0
 62
     1
  6
SLD-Osa
370
    -3
390
F
  0
LAYER
  5
84
330
2
100
AcDbSymbolTableRecord
100
AcDbLayerTableRecord
  2
OPRACOVÁNÍ
 70
     0
 62
   212
  6
SLD-Plná
370
    -3
390
F
  0
LAYER
  5
85
330
2
100
AcDbSymbolTableRecord
100
AcDbLayerTableRecord
  2
TABULKA
 70
     0
 62
    41
  6
Continuous
370
    -1
390
F
  0
LAYER
  5
86
330
2
100
AcDbSymbolTableRecord
100
AcDbLayerTableRecord
  2
GEOMETRICKÉ
 70
     0
 62
   212
  6
SLD-Plná
370
    -3
390
F
  0
LAYER
  5
87
330
2
100
AcDbSymbolTableRecord
100
AcDbLayerTableRecord
  2
ČÁRY
 70
     0
 62
     2
  6
SLD-Plná
370
    -3
390
F
  0
LAYER
  5
88
330
2
100
AcDbSymbolTableRecord
100
AcDbLayerTableRecord
  2
POPIS
 70
     0
 62
     3
  6
SLD-čárkovaná-dlouhá
370
    -3
390
F
  0
LAYER
  5
89
330
2
100
AcDbSymbolTableRecord
100
AcDbLayerTableRecord
  2
ZÁKLADNA
 70
     0
 62
   212
  6
SLD-čárkovaná-dlouhá
370
    -3
390
F
  0
LAYER
  5
8A
330
2
100
AcDbSymbolTableRecord
100
AcDbLayerTableRecord
  2
STŘEDY
 70
     0
 62
     1
  6
SLD-Osa
370
    -3
390
F
  0
LAYER
  5
8B
330
2
100
AcDbSymbolTableRecord
100
AcDbLayerTableRecord
  2
KOLÍK
 70
     0
 62
     9
  6
SLD-Plná
370
    -3
390
F
  0
LAYER
  5
8C
330
2
100
AcDbSymbolTableRecord
100
AcDbLayerTableRecord
  2
PŘERUŠENÍ
 70
     0
 62
     4
  6
SLD-čárkovaná-dlouhá
370
    -3
390
F
  0
LAYER
  5
8D
330
2
100
AcDbSymbolTableRecord
100
AcDbLayerTableRecord
  2
DETAIL
 70
     0
 62
     6
  6
SLD-Plná
370
    -3
390
F
  0
LAYER
  5
8E
330
2
100
AcDbSymbolTableRecord
100
AcDbLayerTableRecord
  2
ZÁVIT
 70
     0
 62
     2
  6
SLD-Plná
370
    -3
390
F
  0
LAYER
  5
8F
330
2
100
AcDbSymbolTableRecord
100
AcDbLayerTableRecord
  2
HRANICE
 70
     0
 62
     6
  6
SLD-čárkovaná-dlouhá
370
    -3
390
F
  0
LAYER
  5
90
330
2
100
AcDbSymbolTableRecord
100
AcDbLayerTableRecord
  2
LOMENÉ
 70
     0
 62
     6
  6
SLD-čárkovaná-dlouhá
370
    -3
390
F
  0
LAYER
  5
91
330
2
100
AcDbSymbolTableRecord
100
AcDbLayerTableRecord
  2
TEČNÉ
 70
     0
 62
     6
  6
SLD-Plná
370
    -3
390
F
  0
ENDTAB
  0
TABLE
  2
STYLE
  5
3
330
0
100
AcDbSymbolTable
 70
     3
  0
STYLE
  5
11
330
3
100
AcDbSymbolTableRecord
100
AcDbTextStyleTableRecord
  2
STANDARD
 70
     0
 40
0.0
 41
1.0
 50
0.0
 71
     0
 42
2.5
  3
GOTHIC.TTF
  4

1001
ACAD
1000
CENTURY GOTHIC
1071
       34
  0
STYLE
  5
B6
330
3
100
AcDbSymbolTableRecord
100
AcDbTextStyleTableRecord
  2
SLDTEXTSTYLE0
 70
     0
 40
0.0
 41
0.913
 50
0.0
 71
     0
 42
2.5
  3
GOTHIC.TTF
  4

1001
ACAD
1000
Century Gothic
1071
      290
  0
STYLE
  5
CA
330
3
100
AcDbSymbolTableRecord
100
AcDbTextStyleTableRecord
  2
SLDTEXTSTYLE1
 70
     0
 40
0.0
 41
0.913
 50
0.0
 71
     0
 42
2.5
  3
GOTHIC.TTF
  4
bigfont
1001
ACAD
1000
Century Gothic
1071
      290
  0
ENDTAB
  0
TABLE
  2
VIEW
  5
6
330
0
100
AcDbSymbolTable
 70
     0
  0
ENDTAB
  0
TABLE
  2
UCS
  5
7
330
0
100
AcDbSymbolTable
 70
     0
  0
ENDTAB
  0
TABLE
  2
APPID
  5
9
330
0
100
AcDbSymbolTable
 70
     2
  0
APPID
  5
12
330
9
100
AcDbSymbolTableRecord
100
AcDbRegAppTableRecord
  2
ACAD
 70
     0
  0
APPID
  5
54A
330
9
100
AcDbSymbolTableRecord
100
AcDbRegAppTableRecord
  2
ACAD_MLEADERVER
 70
     0
  0
ENDTAB
  0
TABLE
  2
DIMSTYLE
  5
A
330
0
100
AcDbSymbolTable
 70
     4
100
AcDbDimStyleTable
  0
DIMSTYLE
105
27
330
A
100
AcDbSymbolTableRecord
100
AcDbDimStyleTableRecord
  2
ISO-25
 70
     0
 41
2.5
 42
0.625
 43
3.75
 44
1.25
 73
     0
 74
     0
 77
     1
 78
     8
140
2.5
141
2.5
143
0.0393700787
147
0.625
171
     3
172
     1
178
     0
271
     2
272
     2
274
     3
278
    44
283
     0
284
     8
340
11
  0
DIMSTYLE
105
17C
102
{ACAD_REACTORS
330
17B
330
186
330
190
330
19A
330
1A4
330
267
330
271
102
}
330
A
100
AcDbSymbolTableRecord
100
AcDbDimStyleTableRecord
  2
SLDDIMSTYLE0
 70
     0
 41
2.5
 44
0.0
 45
0.000000001
 73
     0
 74
     0
 77
     1
 78
    12
 79
     3
140
2.5
147
0.625
173
     1
178
     0
271
     0
272
     2
276
     2
284
    12
340
B6
  0
DIMSTYLE
105
27C
102
{ACAD_REACTORS
330
27B
330
36D
102
}
330
A
100
AcDbSymbolTableRecord
100
AcDbDimStyleTableRecord
  2
SLDDIMSTYLE1
 70
     0
 41
2.5
 44
0.0
 45
0.000000001
 73
     0
 74
     0
 77
     1
 78
    12
 79
     3
140
2.5
147
0.625
172
     1
173
     1
178
     0
271
     0
272
     2
276
     2
284
    12
289
     0
340
B6
  0
DIMSTYLE
105
362
102
{ACAD_REACTORS
330
361
102
}
330
A
100
AcDbSymbolTableRecord
100
AcDbDimStyleTableRecord
  2
SLDDIMSTYLE2
 70
     0
 41
2.5
 44
0.0
 45
0.000000001
 73
     0
 74
     0
 77
     1
 78
    12
 79
     3
140
2.5
147
0.625
173
     1
178
     0
271
     1
272
     2
276
     2
284
    12
340
B6
  0
ENDTAB
  0
TABLE
  2
BLOCK_RECORD
  5
1
330
0
100
AcDbSymbolTable
 70
    11
  0
BLOCK_RECORD
  5
1F
330
1
100
AcDbSymbolTableRecord
100
AcDbBlockTableRecord
  2
*Model_Space
340
22
  0
BLOCK_RECORD
  5
1B
330
1
100
AcDbSymbolTableRecord
100
AcDbBlockTableRecord
  2
*Paper_Space
340
1E
  0
BLOCK_RECORD
  5
23
330
1
100
AcDbSymbolTableRecord
100
AcDbBlockTableRecord
  2
*Paper_Space0
340
26
  0
BLOCK_RECORD
  5
17D
330
1
100
AcDbSymbolTableRecord
100
AcDbBlockTableRecord
  2
_D
340
0
  0
BLOCK_RECORD
  5
187
330
1
100
AcDbSymbolTableRecord
100
AcDbBlockTableRecord
  2
_D_1
340
0
  0
BLOCK_RECORD
  5
191
330
1
100
AcDbSymbolTableRecord
100
AcDbBlockTableRecord
  2
_D_2
340
0
  0
BLOCK_RECORD
  5
19B
330
1
100
AcDbSymbolTableRecord
100
AcDbBlockTableRecord
  2
_D_3
340
0
  0
BLOCK_RECORD
  5
1A5
330
1
100
AcDbSymbolTableRecord
100
AcDbBlockTableRecord
  2
_D_4
340
0
  0
BLOCK_RECORD
  5
268
330
1
100
AcDbSymbolTableRecord
100
AcDbBlockTableRecord
  2
_D_5
340
0
  0
BLOCK_RECORD
  5
272
330
1
100
AcDbSymbolTableRecord
100
AcDbBlockTableRecord
  2
_D_6
340
0
  0
BLOCK_RECORD
  5
27D
330
1
100
AcDbSymbolTableRecord
100
AcDbBlockTableRecord
  2
_D_7
340
0
  0
BLOCK_RECORD
  5
363
330
1
100
AcDbSymbolTableRecord
100
AcDbBlockTableRecord
  2
_D_8
340
0
  0
BLOCK_RECORD
  5
36E
330
1
100
AcDbSymbolTableRecord
100
AcDbBlockTableRecord
  2
_D_9
340
0
  0
ENDTAB
  0
ENDSEC
  0
SECTION
  2
BLOCKS
  0
BLOCK
  5
20
330
1F
100
AcDbEntity
  8
0
100
AcDbBlockBegin
  2
*Model_Space
 70
     0
 10
0.0
 20
0.0
 30
0.0
  3
*Model_Space
  1

  0
ENDBLK
  5
21
330
1F
100
AcDbEntity
  8
0
100
AcDbBlockEnd
  0
BLOCK
  5
1C
330
1B
100
AcDbEntity
 67
     1
  8
0
100
AcDbBlockBegin
  2
*Paper_Space
 70
     0
 10
0.0
 20
0.0
 30
0.0
  3
*Paper_Space
  1

  0
ENDBLK
  5
1D
330
1B
100
AcDbEntity
 67
     1
  8
0
100
AcDbBlockEnd
  0
BLOCK
  5
24
330
23
100
AcDbEntity
  8
0
100
AcDbBlockBegin
  2
*Paper_Space0
 70
     0
 10
0.0
 20
0.0
 30
0.0
  3
*Paper_Space0
  1

  0
ENDBLK
  5
25
330
23
100
AcDbEntity
  8
0
100
AcDbBlockEnd
  0
BLOCK
  5
17E
330
17D
100
AcDbEntity
  8
0
100
AcDbBlockBegin
  2
_D
 70
     0
 10
0.0
 20
0.0
 30
0.0
  3
_D
  1

  0
SOLID
  5
180
330
17D
100
AcDbEntity
  8
KOTY
100
AcDbTrace
 10
68.3972628135
 20
178.9669671563
 30
0.0
 11
70.8972628135
 21
178.5823517717
 31
0.0
 12
70.8972628135
 22
179.3515825409
 32
0.0
 13
70.8972628135
 23
179.3515825409
 33
0.0
  0
SOLID
  5
181
330
17D
100
AcDbEntity
  8
KOTY
100
AcDbTrace
 10
127.3972628135
 20
178.9669671563
 30
0.0
 11
124.8972628135
 21
179.3515825409
 31
0.0
 12
124.8972628135
 22
178.5823517717
 32
0.0
 13
124.8972628135
 23
178.5823517717
 33
0.0
  0
LINE
  5
182
330
17D
100
AcDbEntity
  8
KOTY
100
AcDbLine
 10
68.3972628135
 20
209.2539706845
 30
0.0
 11
68.3972628135
 21
177.9669671563
 31
0.0
  0
LINE
  5
183
330
17D
100
AcDbEntity
  8
KOTY
100
AcDbLine
 10
127.3972628135
 20
203.7539706845
 30
0.0
 11
127.3972628135
 21
177.9669671563
 31
0.0
  0
LINE
  5
184
330
17D
100
AcDbEntity
  8
KOTY
100
AcDbLine
 10
68.3972628135
 20
178.9669671563
 30
0.0
 11
127.3972628135
 21
178.9669671563
 31
0.0
  0
MTEXT
  5
185
330
17D
100
AcDbEntity
  8
KOTY
100
AcDbMText
 10
96.050040599
 20
182.160326706
 30
0.0
 40
2.5
 41
0.0
 71
     1
 72
     1
  1
59
  7
SLDTEXTSTYLE0
 73
     1
 44
1.0
  0
ENDBLK
  5
17F
330
17D
100
AcDbEntity
  8
0
100
AcDbBlockEnd
  0
BLOCK
  5
188
330
187
100
AcDbEntity
  8
0
100
AcDbBlockBegin
  2
_D_1
 70
     0
 10
0.0
 20
0.0
 30
0.0
  3
_D_1
  1

  0
SOLID
  5
18A
330
187
100
AcDbEntity
  8
KOTY
100
AcDbTrace
 10
163.1847064968
 20
257.7539706845
 30
0.0
 11
162.8000911122
 21
255.2539706845
 31
0.0
 12
163.5693218814
 22
255.2539706845
 32
0.0
 13
163.5693218814
 23
255.2539706845
 33
0.0
  0
SOLID
  5
18B
330
187
100
AcDbEntity
  8
KOTY
100
AcDbTrace
 10
163.1847064968
 20
195.5085489671
 30
0.0
 11
163.5693218814
 21
198.0085489671
 31
0.0
 12
162.8000911122
 22
198.0085489671
 32
0.0
 13
162.8000911122
 23
198.0085489671
 33
0.0
  0
LINE
  5
18C
330
187
100
AcDbEntity
  8
KOTY
100
AcDbLine
 10
116.8972628135
 20
257.7539706845
 30
0.0
 11
164.1847064968
 21
257.7539706845
 31
0.0
  0
LINE
  5
18D
330
187
100
AcDbEntity
  8
KOTY
100
AcDbLine
 10
126.557416616
 20
195.5085489671
 30
0.0
 11
164.1847064968
 21
195.5085489671
 31
0.0
  0
LINE
  5
18E
330
187
100
AcDbEntity
  8
KOTY
100
AcDbLine
 10
163.1847064968
 20
257.7539706845
 30
0.0
 11
163.1847064968
 21
195.5085489671
 31
0.0
  0
MTEXT
  5
18F
330
187
100
AcDbEntity
  8
KOTY
100
AcDbMText
 10
159.9913469472
 20
222.7292870529
 30
0.0
 40
2.5
 41
0.0
 71
     1
 72
     1
  1
62
  7
SLDTEXTSTYLE0
 11
-7.044195017643634E-15
 21
1.0
 31
0.0
 73
     1
 44
1.0
  0
ENDBLK
  5
189
330
187
100
AcDbEntity
  8
0
100
AcDbBlockEnd
  0
BLOCK
  5
192
330
191
100
AcDbEntity
  8
0
100
AcDbBlockBegin
  2
_D_2
 70
     0
 10
0.0
 20
0.0
 30
0.0
  3
_D_2
  1

  0
SOLID
  5
194
330
191
100
AcDbEntity
  8
KOTY
100
AcDbTrace
 10
171.8972628135
 20
264.9539706845
 30
0.0
 11
171.5126474289
 21
262.4539706845
 31
0.0
 12
172.2818781981
 22
262.4539706845
 32
0.0
 13
172.2818781981
 23
262.4539706845
 33
0.0
  0
SOLID
  5
195
330
191
100
AcDbEntity
  8
KOTY
100
AcDbTrace
 10
171.8972628135
 20
200.7539706845
 30
0.0
 11
172.2818781981
 21
203.2539706845
 31
0.0
 12
171.5126474289
 22
203.2539706845
 32
0.0
 13
171.5126474289
 23
203.2539706845
 33
0.0
  0
LINE
  5
196
330
191
100
AcDbEntity
  8
KOTY
100
AcDbLine
 10
112.3972628135
 20
264.9539706845
 30
0.0
 11
172.8972628135
 21
264.9539706845
 31
0.0
  0
LINE
  5
197
330
191
100
AcDbEntity
  8
KOTY
100
AcDbLine
 10
138.3972628135
 20
200.7539706845
 30
0.0
 11
172.8972628135
 21
200.7539706845
 31
0.0
  0
LINE
  5
198
330
191
100
AcDbEntity
  8
KOTY
100
AcDbLine
 10
171.8972628135
 20
264.9539706845
 30
0.0
 11
171.8972628135
 21
200.7539706845
 31
0.0
  0
MTEXT
  5
199
330
191
100
AcDbEntity
  8
KOTY
100
AcDbMText
 10
168.7039032639
 20
231.0067484699
 30
0.0
 40
2.5
 41
0.0
 71
     1
 72
     1
  1
64
  7
SLDTEXTSTYLE0
 11
-1.414962237524464E-14
 21
1.0
 31
0.0
 73
     1
 44
1.0
  0
ENDBLK
  5
193
330
191
100
AcDbEntity
  8
0
100
AcDbBlockEnd
  0
BLOCK
  5
19C
330
19B
100
AcDbEntity
  8
0
100
AcDbBlockBegin
  2
_D_3
 70
     0
 10
0.0
 20
0.0
 30
0.0
  3
_D_3
  1

  0
SOLID
  5
19E
330
19B
100
AcDbEntity
  8
KOTY
100
AcDbTrace
 10
41.641943637
 20
257.7539706844
 30
0.0
 11
41.2573282524
 21
255.2539706844
 31
0.0
 12
42.0265590216
 22
255.2539706844
 32
0.0
 13
42.0265590216
 23
255.2539706844
 33
0.0
  0
SOLID
  5
19F
330
19B
100
AcDbEntity
  8
KOTY
100
AcDbTrace
 10
41.641943637
 20
200.7539706845
 30
0.0
 11
42.0265590216
 21
203.2539706845
 31
0.0
 12
41.2573282524
 22
203.2539706845
 32
0.0
 13
41.2573282524
 23
203.2539706845
 33
0.0
  0
LINE
  5
1A0
330
19B
100
AcDbEntity
  8
KOTY
100
AcDbLine
 10
78.8972628135
 20
257.7539706844
 30
0.0
 11
40.641943637
 21
257.7539706844
 31
0.0
  0
LINE
  5
1A1
330
19B
100
AcDbEntity
  8
KOTY
100
AcDbLine
 10
56.1936546165
 20
200.7539706845
 30
0.0
 11
40.641943637
 21
200.7539706845
 31
0.0
  0
LINE
  5
1A2
330
19B
100
AcDbEntity
  8
KOTY
100
AcDbLine
 10
41.641943637
 20
257.7539706844
 30
0.0
 11
41.641943637
 21
200.7539706845
 31
0.0
  0
MTEXT
  5
1A3
330
19B
100
AcDbEntity
  8
KOTY
100
AcDbMText
 10
38.4485840874
 20
227.7828812034
 30
0.0
 40
2.5
 41
0.0
 71
     1
 72
     1
  1
57
  7
SLDTEXTSTYLE0
 11
-1.414962237524464E-14
 21
1.0
 31
0.0
 73
     1
 44
1.0
  0
ENDBLK
  5
19D
330
19B
100
AcDbEntity
  8
0
100
AcDbBlockEnd
  0
BLOCK
  5
1A6
330
1A5
100
AcDbEntity
  8
0
100
AcDbBlockBegin
  2
_D_4
 70
     0
 10
0.0
 20
0.0
 30
0.0
  3
_D_4
  1

  0
SOLID
  5
1A8
330
1A5
100
AcDbEntity
  8
KOTY
100
AcDbTrace
 10
51.0972628135
 20
172.7621740052
 30
0.0
 11
53.5972628135
 21
172.3775586206
 31
0.0
 12
53.5972628135
 22
173.1467893898
 32
0.0
 13
53.5972628135
 23
173.1467893898
 33
0.0
  0
SOLID
  5
1A9
330
1A5
100
AcDbEntity
  8
KOTY
100
AcDbTrace
 10
144.6972628135
 20
172.7621740052
 30
0.0
 11
142.1972628135
 21
173.1467893898
 31
0.0
 12
142.1972628135
 22
172.3775586206
 32
0.0
 13
142.1972628135
 23
172.3775586206
 33
0.0
  0
LINE
  5
1AA
330
1A5
100
AcDbEntity
  8
KOTY
100
AcDbLine
 10
51.0972628135
 20
197.8471847305
 30
0.0
 11
51.0972628135
 21
171.7621740052
 31
0.0
  0
LINE
  5
1AB
330
1A5
100
AcDbEntity
  8
KOTY
100
AcDbLine
 10
144.6972628135
 20
197.8471847305
 30
0.0
 11
144.6972628135
 21
171.7621740052
 31
0.0
  0
LINE
  5
1AC
330
1A5
100
AcDbEntity
  8
KOTY
100
AcDbLine
 10
51.0972628135
 20
172.7621740052
 30
0.0
 11
144.6972628135
 21
172.7621740052
 31
0.0
  0
MTEXT
  5
1AD
330
1A5
100
AcDbEntity
  8
KOTY
100
AcDbMText
 10
96.050040599
 20
175.9555335548
 30
0.0
 40
2.5
 41
0.0
 71
     1
 72
     1
  1
94
  7
SLDTEXTSTYLE0
 73
     1
 44
1.0
  0
ENDBLK
  5
1A7
330
1A5
100
AcDbEntity
  8
0
100
AcDbBlockEnd
  0
BLOCK
  5
269
330
268
100
AcDbEntity
  8
0
100
AcDbBlockBegin
  2
_D_5
 70
     0
 10
0.0
 20
0.0
 30
0.0
  3
_D_5
  1

  0
SOLID
  5
26B
330
268
100
AcDbEntity
  8
KOTY
100
AcDbTrace
 10
235.7554525627
 20
274.9539706845
 30
0.0
 11
233.2554525627
 21
275.3385860691
 31
0.0
 12
233.2554525627
 22
274.5693552998
 32
0.0
 13
233.2554525627
 23
274.5693552998
 33
0.0
  0
SOLID
  5
26C
330
268
100
AcDbEntity
  8
KOTY
100
AcDbTrace
 10
213.7554525627
 20
274.9539706845
 30
0.0
 11
216.2554525627
 21
274.5693552998
 31
0.0
 12
216.2554525627
 22
275.3385860691
 32
0.0
 13
216.2554525627
 23
275.3385860691
 33
0.0
  0
LINE
  5
26D
330
268
100
AcDbEntity
  8
KOTY
100
AcDbLine
 10
235.7554525627
 20
264.9539706845
 30
0.0
 11
235.7554525627
 21
275.9539706845
 31
0.0
  0
LINE
  5
26E
330
268
100
AcDbEntity
  8
KOTY
100
AcDbLine
 10
213.7554525627
 20
264.9539706845
 30
0.0
 11
213.7554525627
 21
275.9539706845
 31
0.0
  0
LINE
  5
26F
330
268
100
AcDbEntity
  8
KOTY
100
AcDbLine
 10
235.7554525627
 20
274.9539706845
 30
0.0
 11
213.7554525627
 21
274.9539706845
 31
0.0
  0
MTEXT
  5
270
330
268
100
AcDbEntity
  8
KOTY
100
AcDbMText
 10
222.9082303481
 20
278.1473302341
 30
0.0
 40
2.5
 41
0.0
 71
     1
 72
     1
  1
22
  7
SLDTEXTSTYLE0
 73
     1
 44
1.0
  0
ENDBLK
  5
26A
330
268
100
AcDbEntity
  8
0
100
AcDbBlockEnd
  0
BLOCK
  5
273
330
272
100
AcDbEntity
  8
0
100
AcDbBlockBegin
  2
_D_6
 70
     0
 10
0.0
 20
0.0
 30
0.0
  3
_D_6
  1

  0
SOLID
  5
275
330
272
100
AcDbEntity
  8
KOTY
100
AcDbTrace
 10
214.7554525627
 20
173.0143271813
 30
0.0
 11
217.2554525627
 21
172.6297117967
 31
0.0
 12
217.2554525627
 22
173.3989425659
 32
0.0
 13
217.2554525627
 23
173.3989425659
 33
0.0
  0
SOLID
  5
276
330
272
100
AcDbEntity
  8
KOTY
100
AcDbTrace
 10
234.7554525627
 20
173.0143271813
 30
0.0
 11
232.2554525627
 21
173.3989425659
 31
0.0
 12
232.2554525627
 22
172.6297117967
 32
0.0
 13
232.2554525627
 23
172.6297117967
 33
0.0
  0
LINE
  5
277
330
272
100
AcDbEntity
  8
KOTY
100
AcDbLine
 10
214.7554525627
 20
214.2539706845
 30
0.0
 11
214.7554525627
 21
172.0143271813
 31
0.0
  0
LINE
  5
278
330
272
100
AcDbEntity
  8
KOTY
100
AcDbLine
 10
234.7554525627
 20
214.2539706845
 30
0.0
 11
234.7554525627
 21
172.0143271813
 31
0.0
  0
LINE
  5
279
330
272
100
AcDbEntity
  8
KOTY
100
AcDbLine
 10
214.7554525627
 20
173.0143271813
 30
0.0
 11
234.7554525627
 21
173.0143271813
 31
0.0
  0
MTEXT
  5
27A
330
272
100
AcDbEntity
  8
KOTY
100
AcDbMText
 10
222.9082303481
 20
176.207686731
 30
0.0
 40
2.5
 41
0.0
 71
     1
 72
     1
  1
20
  7
SLDTEXTSTYLE0
 73
     1
 44
1.0
  0
ENDBLK
  5
274
330
272
100
AcDbEntity
  8
0
100
AcDbBlockEnd
  0
BLOCK
  5
27E
330
27D
100
AcDbEntity
  8
0
100
AcDbBlockBegin
  2
_D_7
 70
     0
 10
0.0
 20
0.0
 30
0.0
  3
_D_7
  1

  0
SOLID
  5
280
330
27D
100
AcDbEntity
  8
KOTY
100
AcDbTrace
 10
217.2554525627
 20
177.6395443557
 30
0.0
 11
219.7554525627
 21
177.2549289711
 31
0.0
 12
219.7554525627
 22
178.0241597403
 32
0.0
 13
219.7554525627
 23
178.0241597403
 33
0.0
  0
SOLID
  5
281
330
27D
100
AcDbEntity
  8
KOTY
100
AcDbTrace
 10
232.2554525627
 20
177.6395443557
 30
0.0
 11
229.7554525627
 21
178.0241597403
 31
0.0
 12
229.7554525627
 22
177.2549289711
 32
0.0
 13
229.7554525627
 23
177.2549289711
 33
0.0
  0
LINE
  5
282
330
27D
100
AcDbEntity
  8
KOTY
100
AcDbLine
 10
217.2554525627
 20
194.392458546
 30
0.0
 11
217.2554525627
 21
176.6395443557
 31
0.0
  0
LINE
  5
283
330
27D
100
AcDbEntity
  8
KOTY
100
AcDbLine
 10
232.2554525627
 20
194.392458546
 30
0.0
 11
232.2554525627
 21
176.6395443557
 31
0.0
  0
LINE
  5
284
330
27D
100
AcDbEntity
  8
KOTY
100
AcDbLine
 10
217.2554525627
 20
177.6395443557
 30
0.0
 11
232.2554525627
 21
177.6395443557
 31
0.0
  0
MTEXT
  5
285
330
27D
100
AcDbEntity
  8
KOTY
100
AcDbMText
 10
222.9082303481
 20
180.8329039053
 30
0.0
 40
2.5
 41
0.0
 71
     1
 72
     1
  1
15
  7
SLDTEXTSTYLE0
 73
     1
 44
1.0
  0
ENDBLK
  5
27F
330
27D
100
AcDbEntity
  8
0
100
AcDbBlockEnd
  0
BLOCK
  5
364
330
363
100
AcDbEntity
  8
0
100
AcDbBlockBegin
  2
_D_8
 70
     0
 10
0.0
 20
0.0
 30
0.0
  3
_D_8
  1

  0
SOLID
  5
366
330
363
100
AcDbEntity
  8
KOTY
100
AcDbTrace
 10
159.8972628135
 20
116.2363140676
 30
0.0
 11
159.5126474289
 21
113.7363140676
 31
0.0
 12
160.2818781981
 22
113.7363140676
 32
0.0
 13
160.2818781981
 23
113.7363140676
 33
0.0
  0
SOLID
  5
367
330
363
100
AcDbEntity
  8
KOTY
100
AcDbTrace
 10
159.8972628135
 20
109.7363140676
 30
0.0
 11
160.2818781981
 21
112.2363140676
 31
0.0
 12
159.5126474289
 22
112.2363140676
 32
0.0
 13
159.5126474289
 23
112.2363140676
 33
0.0
  0
LINE
  5
368
330
363
100
AcDbEntity
  8
KOTY
100
AcDbLine
 10
103.8972628135
 20
116.2363140676
 30
0.0
 11
160.8972628135
 21
116.2363140676
 31
0.0
  0
LINE
  5
369
330
363
100
AcDbEntity
  8
KOTY
100
AcDbLine
 10
103.8972628135
 20
109.7363140676
 30
0.0
 11
160.8972628135
 21
109.7363140676
 31
0.0
  0
LINE
  5
36A
330
363
100
AcDbEntity
  8
KOTY
100
AcDbLine
 10
159.8972628135
 20
116.2363140676
 30
0.0
 11
159.8972628135
 21
109.7363140676
 31
0.0
  0
LINE
  5
36B
330
363
100
AcDbEntity
  8
KOTY
100
AcDbLine
 10
159.8972628135
 20
109.7363140676
 30
0.0
 11
159.8972628135
 21
98.4633441254
 31
0.0
  0
MTEXT
  5
36C
330
363
100
AcDbEntity
  8
KOTY
100
AcDbMText
 10
156.7039032639
 20
98.4633441254
 30
0.0
 40
2.5
 41
0.0
 71
     1
 72
     1
  1
6,5
  7
SLDTEXTSTYLE0
 11
-7.044195017643634E-15
 21
1.0
 31
0.0
 73
     1
 44
1.0
  0
ENDBLK
  5
365
330
363
100
AcDbEntity
  8
0
100
AcDbBlockEnd
  0
BLOCK
  5
36F
330
36E
100
AcDbEntity
  8
0
100
AcDbBlockBegin
  2
_D_9
 70
     0
 10
0.0
 20
0.0
 30
0.0
  3
_D_9
  1

  0
SOLID
  5
371
330
36E
100
AcDbEntity
  8
KOTY
100
AcDbTrace
 10
103.8972628135
 20
133.9863140676
 30
0.0
 11
106.3972628135
 21
133.601698683
 31
0.0
 12
106.3972628135
 22
134.3709294522
 32
0.0
 13
106.3972628135
 23
134.3709294522
 33
0.0
  0
SOLID
  5
372
330
36E
100
AcDbEntity
  8
KOTY
100
AcDbTrace
 10
91.8972628135
 20
133.9863140676
 30
0.0
 11
89.3972628135
 21
134.3709294522
 31
0.0
 12
89.3972628135
 22
133.601698683
 32
0.0
 13
89.3972628135
 23
133.601698683
 33
0.0
  0
LINE
  5
373
330
36E
100
AcDbEntity
  8
KOTY
100
AcDbLine
 10
103.8972628135
 20
112.9863140676
 30
0.0
 11
103.8972628135
 21
134.9863140676
 31
0.0
  0
LINE
  5
374
330
36E
100
AcDbEntity
  8
KOTY
100
AcDbLine
 10
91.8972628135
 20
112.9863140676
 30
0.0
 11
91.8972628135
 21
134.9863140676
 31
0.0
  0
LINE
  5
375
330
36E
100
AcDbEntity
  8
KOTY
100
AcDbLine
 10
103.8972628135
 20
133.9863140676
 30
0.0
 11
108.7049551212
 21
133.9863140676
 31
0.0
  0
LINE
  5
376
330
36E
100
AcDbEntity
  8
KOTY
100
AcDbLine
 10
103.8972628135
 20
133.9863140676
 30
0.0
 11
91.8972628135
 21
133.9863140676
 31
0.0
  0
LINE
  5
377
330
36E
100
AcDbEntity
  8
KOTY
100
AcDbLine
 10
91.8972628135
 20
133.9863140676
 30
0.0
 11
87.0895705058
 21
133.9863140676
 31
0.0
  0
MTEXT
  5
378
330
36E
100
AcDbEntity
  8
KOTY
100
AcDbMText
 10
96.050040599
 20
137.1796736172
 30
0.0
 40
2.5
 41
0.0
 71
     1
 72
     1
  1
12
  7
SLDTEXTSTYLE0
 73
     1
 44
1.0
  0
ENDBLK
  5
370
330
36E
100
AcDbEntity
  8
0
100
AcDbBlockEnd
  0
ENDSEC
  0
SECTION
  2
ENTITIES
  0
LINE
  5
92
330
1F
100
AcDbEntity
  8
ČÁRY
100
AcDbLine
 10
5.013025334
 20
5.0
 30
0.0
 11
5.013025334
 21
292.0
 31
0.0
  0
LINE
  5
93
330
1F
100
AcDbEntity
  8
ČÁRY
100
AcDbLine
 10
5.013025334
 20
5.0
 30
0.0
 11
414.986974666
 21
5.0
 31
0.0
  0
LINE
  5
94
330
1F
100
AcDbEntity
  8
ČÁRY
100
AcDbLine
 10
414.986974666
 20
5.0
 30
0.0
 11
414.986974666
 21
292.0
 31
0.0
  0
LINE
  5
95
330
1F
100
AcDbEntity
  8
ČÁRY
100
AcDbLine
 10
5.013025334
 20
292.0
 30
0.0
 11
414.986974666
 21
292.0
 31
0.0
  0
LINE
  5
96
330
1F
100
AcDbEntity
  8
ČÁRY
100
AcDbLine
 10
280.0
 20
5.0
 30
0.0
 11
280.0
 21
0.0
 31
0.0
  0
LINE
  5
97
330
1F
100
AcDbEntity
  8
ČÁRY
100
AcDbLine
 10
210.0
 20
5.0
 30
0.0
 11
210.0
 21
0.0
 31
0.0
  0
LINE
  5
98
330
1F
100
AcDbEntity
  8
ČÁRY
100
AcDbLine
 10
350.0
 20
5.0
 30
0.0
 11
350.0
 21
0.0
 31
0.0
  0
LINE
  5
99
330
1F
100
AcDbEntity
  8
ČÁRY
100
AcDbLine
 10
70.0
 20
297.0
 30
0.0
 11
70.0
 21
292.0
 31
0.0
  0
LINE
  5
9A
330
1F
100
AcDbEntity
  8
ČÁRY
100
AcDbLine
 10
70.0
 20
5.0
 30
0.0
 11
70.0
 21
0.0
 31
0.0
  0
LINE
  5
9B
330
1F
100
AcDbEntity
  8
ČÁRY
100
AcDbLine
 10
140.0
 20
5.0
 30
0.0
 11
140.0
 21
0.0
 31
0.0
  0
LINE
  5
9C
330
1F
100
AcDbEntity
  8
ČÁRY
100
AcDbLine
 10
140.0
 20
297.0
 30
0.0
 11
140.0
 21
292.0
 31
0.0
  0
LINE
  5
9D
330
1F
100
AcDbEntity
  8
ČÁRY
100
AcDbLine
 10
350.0
 20
297.0
 30
0.0
 11
350.0
 21
292.0
 31
0.0
  0
LINE
  5
9E
330
1F
100
AcDbEntity
  8
ČÁRY
100
AcDbLine
 10
280.0
 20
297.0
 30
0.0
 11
280.0
 21
292.0
 31
0.0
  0
LINE
  5
9F
330
1F
100
AcDbEntity
  8
ČÁRY
100
AcDbLine
 10
419.986974666
 20
222.6297420392
 30
0.0
 11
414.986974666
 21
222.6297420392
 31
0.0
  0
LINE
  5
A0
330
1F
100
AcDbEntity
  8
ČÁRY
100
AcDbLine
 10
419.986974666
 20
148.4297420392
 30
0.0
 11
414.986974666
 21
148.4297420392
 31
0.0
  0
LINE
  5
A1
330
1F
100
AcDbEntity
  8
ČÁRY
100
AcDbLine
 10
419.986974666
 20
74.2297420392
 30
0.0
 11
414.986974666
 21
74.2297420392
 31
0.0
  0
LINE
  5
A2
330
1F
100
AcDbEntity
  8
ČÁRY
100
AcDbLine
 10
0.0
 20
0.0
 30
0.0
 11
0.0
 21
297.0
 31
0.0
  0
LINE
  5
A3
330
1F
100
AcDbEntity
  8
ČÁRY
100
AcDbLine
 10
0.0
 20
0.0
 30
0.0
 11
420.0
 21
0.0
 31
0.0
  0
LINE
  5
A4
330
1F
100
AcDbEntity
  8
ČÁRY
100
AcDbLine
 10
0.0
 20
297.0
 30
0.0
 11
420.0
 21
297.0
 31
0.0
  0
LINE
  5
A5
330
1F
100
AcDbEntity
  8
ČÁRY
100
AcDbLine
 10
420.0
 20
0.0
 30
0.0
 11
420.0
 21
297.0
 31
0.0
  0
LINE
  5
A6
330
1F
100
AcDbEntity
  8
ČÁRY
100
AcDbLine
 10
5.013025334
 20
222.6297420392
 30
0.0
 11
0.0
 21
222.6297420392
 31
0.0
  0
LINE
  5
A7
330
1F
100
AcDbEntity
  8
ČÁRY
100
AcDbLine
 10
5.013025334
 20
148.4
 30
0.0
 11
0.0
 21
148.4
 31
0.0
  0
LINE
  5
A8
330
1F
100
AcDbEntity
  8
ČÁRY
100
AcDbLine
 10
5.013025334
 20
74.2
 30
0.0
 11
0.0
 21
74.2
 31
0.0
  0
LINE
  5
A9
330
1F
100
AcDbEntity
  8
ČÁRY
100
AcDbLine
 10
210.0
 20
297.0
 30
0.0
 11
210.0
 21
292.0
 31
0.0
  0
LINE
  5
AA
330
1F
100
AcDbEntity
  8
ČÁRY
100
AcDbLine
 10
210.0
 20
2.5
 30
0.0
 11
210.0
 21
5.0
 31
0.0
  0
LINE
  5
AB
330
1F
100
AcDbEntity
  8
ČÁRY
100
AcDbLine
 10
160.0
 20
2.5
 30
0.0
 11
260.0
 21
2.5
 31
0.0
  0
LINE
  5
AC
330
1F
100
AcDbEntity
  8
ČÁRY
100
AcDbLine
 10
220.0
 20
2.5
 30
0.0
 11
220.0
 21
5.0
 31
0.0
  0
LINE
  5
AD
330
1F
100
AcDbEntity
  8
ČÁRY
100
AcDbLine
 10
230.0
 20
2.5
 30
0.0
 11
230.0
 21
5.0
 31
0.0
  0
LINE
  5
AE
330
1F
100
AcDbEntity
  8
ČÁRY
100
AcDbLine
 10
240.0
 20
2.5
 30
0.0
 11
240.0
 21
5.0
 31
0.0
  0
LINE
  5
AF
330
1F
100
AcDbEntity
  8
ČÁRY
100
AcDbLine
 10
250.0
 20
2.5
 30
0.0
 11
250.0
 21
5.0
 31
0.0
  0
LINE
  5
B0
330
1F
100
AcDbEntity
  8
ČÁRY
100
AcDbLine
 10
260.0
 20
2.5
 30
0.0
 11
260.0
 21
5.0
 31
0.0
  0
LINE
  5
B1
330
1F
100
AcDbEntity
  8
ČÁRY
100
AcDbLine
 10
200.0
 20
2.5
 30
0.0
 11
200.0
 21
5.0
 31
0.0
  0
LINE
  5
B2
330
1F
100
AcDbEntity
  8
ČÁRY
100
AcDbLine
 10
190.0
 20
2.5
 30
0.0
 11
190.0
 21
5.0
 31
0.0
  0
LINE
  5
B3
330
1F
100
AcDbEntity
  8
ČÁRY
100
AcDbLine
 10
180.0
 20
2.5
 30
0.0
 11
180.0
 21
5.0
 31
0.0
  0
LINE
  5
B4
330
1F
100
AcDbEntity
  8
ČÁRY
100
AcDbLine
 10
170.0
 20
2.5
 30
0.0
 11
170.0
 21
5.0
 31
0.0
  0
LINE
  5
B5
330
1F
100
AcDbEntity
  8
ČÁRY
100
AcDbLine
 10
160.0
 20
2.5
 30
0.0
 11
160.0
 21
5.0
 31
0.0
  0
MTEXT
  5
B7
330
1F
100
AcDbEntity
  8
TEXT
100
AcDbMText
 10
1.1749597848
 20
43.193344795
 30
0.0
 40
3.5
 41
0.0
 71
     1
 72
     1
  1
D
  7
SLDTEXTSTYLE0
 73
     1
 44
1.0
  0
MTEXT
  5
B8
330
1F
100
AcDbEntity
  8
TEXT
100
AcDbMText
 10
1.1440984563
 20
115.6421126091
 30
0.0
 40
3.5
 41
0.0
 71
     1
 72
     1
  1
C
  7
SLDTEXTSTYLE0
 73
     1
 44
1.0
  0
MTEXT
  5
B9
330
1F
100
AcDbEntity
  8
TEXT
100
AcDbMText
 10
1.1528738964
 20
185.5995647558
 30
0.0
 40
3.5
 41
0.0
 71
     1
 72
     1
  1
B
  7
SLDTEXTSTYLE0
 73
     1
 44
1.0
  0
MTEXT
  5
BA
330
1F
100
AcDbEntity
  8
TEXT
100
AcDbMText
 10
1.0074735968
 20
262.9973158034
 30
0.0
 40
3.5
 41
0.0
 71
     1
 72
     1
  1
A
  7
SLDTEXTSTYLE0
 73
     1
 44
1.0
  0
MTEXT
  5
BB
330
1F
100
AcDbEntity
  8
TEXT
100
AcDbMText
 10
103.6153618422
 20
4.8876505628
 30
0.0
 40
3.5
 41
0.0
 71
     1
 72
     1
  1
2
  7
SLDTEXTSTYLE0
 73
     1
 44
1.0
  0
MTEXT
  5
BC
330
1F
100
AcDbEntity
  8
TEXT
100
AcDbMText
 10
34.2354692666
 20
4.9378531247
 30
0.0
 40
3.5
 41
0.0
 71
     1
 72
     1
  1
1
  7
SLDTEXTSTYLE0
 73
     1
 44
1.0
  0
MTEXT
  5
BD
330
1F
100
AcDbEntity
  8
TEXT
100
AcDbMText
 10
313.6705203721
 20
4.6810737005
 30
0.0
 40
3.5
 41
0.0
 71
     1
 72
     1
  1
5
  7
SLDTEXTSTYLE0
 73
     1
 44
1.0
  0
MTEXT
  5
BE
330
1F
100
AcDbEntity
  8
TEXT
100
AcDbMText
 10
382.6116870877
 20
4.9001127452
 30
0.0
 40
3.5
 41
0.0
 71
     1
 72
     1
  1
6
  7
SLDTEXTSTYLE0
 73
     1
 44
1.0
  0
MTEXT
  5
BF
330
1F
100
AcDbEntity
  8
TEXT
100
AcDbMText
 10
382.6116870877
 20
296.9001127452
 30
0.0
 40
3.5
 41
0.0
 71
     1
 72
     1
  1
6
  7
SLDTEXTSTYLE0
 73
     1
 44
1.0
  0
MTEXT
  5
C0
330
1F
100
AcDbEntity
  8
TEXT
100
AcDbMText
 10
313.6705203721
 20
296.6810737005
 30
0.0
 40
3.5
 41
0.0
 71
     1
 72
     1
  1
5
  7
SLDTEXTSTYLE0
 73
     1
 44
1.0
  0
MTEXT
  5
C1
330
1F
100
AcDbEntity
  8
TEXT
100
AcDbMText
 10
103.6153618422
 20
296.8876505628
 30
0.0
 40
3.5
 41
0.0
 71
     1
 72
     1
  1
2
  7
SLDTEXTSTYLE0
 73
     1
 44
1.0
  0
MTEXT
  5
C2
330
1F
100
AcDbEntity
  8
TEXT
100
AcDbMText
 10
173.2601604861
 20
296.8245244595
 30
0.0
 40
3.5
 41
0.0
 71
     1
 72
     1
  1
3
  7
SLDTEXTSTYLE0
 73
     1
 44
1.0
  0
MTEXT
  5
C3
330
1F
100
AcDbEntity
  8
TEXT
100
AcDbMText
 10
248.1589870842
 20
296.6752645606
 30
0.0
 40
3.5
 41
0.0
 71
     1
 72
     1
  1
4
  7
SLDTEXTSTYLE0
 73
     1
 44
1.0
  0
MTEXT
  5
C4
330
1F
100
AcDbEntity
  8
TEXT
100
AcDbMText
 10
34.2354692666
 20
296.9378531247
 30
0.0
 40
3.5
 41
0.0
 71
     1
 72
     1
  1
1
  7
SLDTEXTSTYLE0
 73
     1
 44
1.0
  0
MTEXT
  5
C5
330
1F
100
AcDbEntity
  8
TEXT
100
AcDbMText
 10
416.1619344509
 20
43.193344795
 30
0.0
 40
3.5
 41
0.0
 71
     1
 72
     1
  1
D
  7
SLDTEXTSTYLE0
 73
     1
 44
1.0
  0
MTEXT
  5
C6
330
1F
100
AcDbEntity
  8
TEXT
100
AcDbMText
 10
416.1310731224
 20
115.6421126091
 30
0.0
 40
3.5
 41
0.0
 71
     1
 72
     1
  1
C
  7
SLDTEXTSTYLE0
 73
     1
 44
1.0
  0
MTEXT
  5
C7
330
1F
100
AcDbEntity
  8
TEXT
100
AcDbMText
 10
415.9944482629
 20
262.9973158034
 30
0.0
 40
3.5
 41
0.0
 71
     1
 72
     1
  1
A
  7
SLDTEXTSTYLE0
 73
     1
 44
1.0
  0
MTEXT
  5
C8
330
1F
100
AcDbEntity
  8
TEXT
100
AcDbMText
 10
416.1398485624
 20
185.5995647558
 30
0.0
 40
3.5
 41
0.0
 71
     1
 72
     1
  1
B
  7
SLDTEXTSTYLE0
 73
     1
 44
1.0
  0
MTEXT
  5
C9
330
1F
100
AcDbEntity
  8
TEXT
100
AcDbMText
 10
361.7221998537
 20
21.4405260408
 30
0.0
 40
4.7625
 41
0.0
 71
     1
 72
     1
  1
6-012663-XXXX
  7
SLDTEXTSTYLE0
 73
     1
 44
1.0
  0
MTEXT
  5
CB
330
1F
100
AcDbEntity
  8
TEXT
100
AcDbMText
 10
254.5238847094
 20
21.4405260408
 30
0.0
 40
4.7625
 41
0.0
 71
     1
 72
     1
  1
MECHANICKÝ VĚŠÁK S IZOLACÍ
  7
SLDTEXTSTYLE1
 73
     1
 44
1.0
  0
ARC
  5
CC
330
1F
100
AcDbEntity
  8
OBRYS
100
AcDbCircle
 10
134.3972628135
 20
200.6733019205
 30
0.0
 40
9.320000000000034
100
AcDbArc
 50
284.6088858976
 51
292.0516816703
  0
ARC
  5
CD
330
1F
100
AcDbEntity
  8
OBRYS
100
AcDbCircle
 10
134.3972628135
 20
200.6733019205
 30
0.0
 40
9.32000000000004
100
AcDbArc
 50
243.2150044925
 51
255.3911141024
  0
LINE
  5
CE
330
1F
100
AcDbEntity
  8
OBRYS
100
AcDbLine
 10
130.1972619612
 20
192.4480793494
 30
0.0
 11
130.1972619612
 21
192.3533005137
 31
0.0
  0
LINE
  5
CF
330
1F
100
AcDbEntity
  8
OBRYS
100
AcDbLine
 10
132.3972619493
 20
207.5828106571
 30
0.0
 11
132.3972619493
 21
202.7539701629
 31
0.0
  0
ARC
  5
D0
330
1F
100
AcDbEntity
  8
OBRYS
100
AcDbCircle
 10
61.3972628135
 20
200.6733019205
 30
0.0
 40
9.320000000000034
100
AcDbArc
 50
284.6088858976
 51
296.7849955075
  0
ARC
  5
D1
330
1F
100
AcDbEntity
  8
OBRYS
100
AcDbCircle
 10
61.3972628135
 20
200.6733019205
 30
0.0
 40
9.320000000000013
100
AcDbArc
 50
247.9483183297
 51
255.3911141024
  0
LINE
  5
D2
330
1F
100
AcDbEntity
  8
OBRYS
100
AcDbLine
 10
65.5972636659
 20
192.3533005137
 30
0.0
 11
65.5972636659
 21
192.4480793494
 31
0.0
  0
LINE
  5
D3
330
1F
100
AcDbEntity
  8
OBRYS
100
AcDbLine
 10
63.3972636778
 20
202.7539701629
 30
0.0
 11
63.3972636778
 21
207.5828106571
 31
0.0
  0
LINE
  5
D4
330
1F
100
AcDbEntity
  8
OBRYS
100
AcDbLine
 10
55.3440614957
 20
195.9717122335
 30
0.0
 11
55.3039848227
 21
195.953022452
 31
0.0
  0
LINE
  5
D5
330
1F
100
AcDbEntity
  8
OBRYS
100
AcDbLine
 10
64.247453155
 20
199.5539700109
 30
0.0
 11
68.897263648
 21
199.5539700109
 31
0.0
  0
LINE
  5
D6
330
1F
100
AcDbEntity
  8
OBRYS
100
AcDbLine
 10
68.897263648
 20
199.5539700109
 30
0.0
 11
68.897263648
 21
200.7539698351
 31
0.0
  0
LINE
  5
D7
330
1F
100
AcDbEntity
  8
OBRYS
100
AcDbLine
 10
62.9990599472
 20
200.7539698351
 30
0.0
 11
68.897263648
 21
200.7539698351
 31
0.0
  0
ARC
  5
D8
330
1F
100
AcDbEntity
  8
OBRYS
100
AcDbCircle
 10
54.3972628135
 20
197.8471847305
 30
0.0
 40
3.300000000000019
100
AcDbArc
 50
65.3064034229
 51
284.0701804402
  0
ARC
  5
D9
330
1F
100
AcDbEntity
  8
OBRYS
100
AcDbCircle
 10
54.3972628135
 20
197.8471847305
 30
0.0
 40
2.100000000000004
100
AcDbArc
 50
65.3064034229
 51
295.5801145274
  0
ARC
  5
DA
330
1F
100
AcDbEntity
  8
OBRYS
100
AcDbCircle
 10
56.1936546165
 20
201.7539706845
 30
0.0
 40
2.200000000000017
100
AcDbArc
 50
245.3064034229
 51
258.0952947319
  0
LWPOLYLINE
  5
DB
330
1F
100
AcDbEntity
  8
OBRYS
100
AcDbPolyline
 90
        3
 70
   128
 43
0.0
 10
55.7758896966
 20
200.8454163987
 10
55.8254174311
 20
200.8242381233
 10
55.8713353593
 20
200.8073402065
  0
LWPOLYLINE
  5
DC
330
1F
100
AcDbEntity
  8
OBRYS
100
AcDbPolyline
 90
        3
 70
   128
 43
0.0
 10
140.0186359305
 20
200.8454163987
 10
139.969108196
 20
200.8242381233
 10
139.9231902678
 20
200.8073402065
  0
ARC
  5
DD
330
1F
100
AcDbEntity
  8
OBRYS
100
AcDbCircle
 10
139.6008710105
 20
201.7539706845
 30
0.0
 40
2.200000000000024
100
AcDbArc
 50
281.9047052681
 51
294.6935965771
  0
ARC
  5
DE
330
1F
100
AcDbEntity
  8
OBRYS
100
AcDbCircle
 10
141.3972628135
 20
197.8471847305
 30
0.0
 40
3.300000000000012
100
AcDbArc
 50
255.9298195598
 51
114.6935965771
  0
ARC
  5
DF
330
1F
100
AcDbEntity
  8
OBRYS
100
AcDbCircle
 10
141.3972628135
 20
197.8471847305
 30
0.0
 40
2.10000000000001
100
AcDbArc
 50
244.4198854726
 51
114.6935965771
  0
LINE
  5
E0
330
1F
100
AcDbEntity
  8
OBRYS
100
AcDbLine
 10
140.4504641313
 20
195.9717122335
 30
0.0
 11
140.4905408043
 21
195.953022452
 31
0.0
  0
LINE
  5
E1
330
1F
100
AcDbEntity
  8
OBRYS
100
AcDbLine
 10
126.8972619791
 20
199.5539700109
 30
0.0
 11
126.8972619791
 21
200.7539698351
 31
0.0
  0
LINE
  5
E2
330
1F
100
AcDbEntity
  8
OBRYS
100
AcDbLine
 10
132.7954656798
 20
200.7539698351
 30
0.0
 11
126.8972619791
 21
200.7539698351
 31
0.0
  0
LINE
  5
E3
330
1F
100
AcDbEntity
  8
OBRYS
100
AcDbLine
 10
131.547072472
 20
199.5539700109
 30
0.0
 11
126.8972619791
 21
199.5539700109
 31
0.0
  0
LINE
  5
E4
330
1F
100
AcDbEntity
  8
OBRYS
100
AcDbLine
 10
83.3972632308
 20
264.9539706725
 30
0.0
 11
83.3972632308
 21
262.2539715338
 31
0.0
  0
LINE
  5
E5
330
1F
100
AcDbEntity
  8
OBRYS
100
AcDbLine
 10
83.3972632308
 20
262.2539715338
 30
0.0
 11
85.3972626273
 21
262.2539715338
 31
0.0
  0
LINE
  5
E6
330
1F
100
AcDbEntity
  8
OBRYS
100
AcDbLine
 10
110.3972629998
 20
262.2539715338
 30
0.0
 11
112.3972623963
 21
262.2539715338
 31
0.0
  0
LINE
  5
E7
330
1F
100
AcDbEntity
  8
OBRYS
100
AcDbLine
 10
110.3972629998
 20
258.2539708782
 30
0.0
 11
85.3972626273
 21
258.2539708782
 31
0.0
  0
LINE
  5
E8
330
1F
100
AcDbEntity
  8
OBRYS
100
AcDbLine
 10
110.3972629998
 20
258.2539708782
 30
0.0
 11
110.3972629998
 21
262.2539715338
 31
0.0
  0
LINE
  5
E9
330
1F
100
AcDbEntity
  8
OBRYS
100
AcDbLine
 10
85.3972626273
 20
258.2539708782
 30
0.0
 11
85.3972626273
 21
262.2539715338
 31
0.0
  0
LINE
  5
EA
330
1F
100
AcDbEntity
  8
OBRYS
100
AcDbLine
 10
112.3972623963
 20
264.9539706725
 30
0.0
 11
83.3972632308
 21
264.9539706725
 31
0.0
  0
LINE
  5
EB
330
1F
100
AcDbEntity
  8
OBRYS
100
AcDbLine
 10
112.3972623963
 20
264.9539706725
 30
0.0
 11
112.3972623963
 21
262.2539715338
 31
0.0
  0
LINE
  5
EC
330
1F
100
AcDbEntity
  8
OBRYS
100
AcDbLine
 10
66.3972623069
 20
209.253970297
 30
0.0
 11
66.3972623069
 21
214.2539711166
 31
0.0
  0
LINE
  5
ED
330
1F
100
AcDbEntity
  8
OBRYS
100
AcDbLine
 10
68.3972626347
 20
214.2539711166
 30
0.0
 11
66.3972623069
 21
214.2539711166
 31
0.0
  0
LINE
  5
EE
330
1F
100
AcDbEntity
  8
OBRYS
100
AcDbLine
 10
68.3972626347
 20
214.2539711166
 30
0.0
 11
68.3972626347
 21
209.253970297
 31
0.0
  0
LINE
  5
EF
330
1F
100
AcDbEntity
  8
OBRYS
100
AcDbLine
 10
68.3972626347
 20
209.253970297
 30
0.0
 11
66.3972623069
 21
209.253970297
 31
0.0
  0
ARC
  5
F0
330
1F
100
AcDbEntity
  8
OBRYS
100
AcDbCircle
 10
128.3972628135
 20
235.6080726507
 30
0.0
 40
1.000000000000359
100
AcDbArc
 50
180.0
 51
253.398450401
  0
LINE
  5
F1
330
1F
100
AcDbEntity
  8
OBRYS
100
AcDbLine
 10
127.3972629923
 20
257.2539707143
 30
0.0
 11
127.3972629923
 21
235.6080727148
 31
0.0
  0
LINE
  5
F2
330
1F
100
AcDbEntity
  8
OBRYS
100
AcDbLine
 10
121.5070351381
 20
260.253971206
 30
0.0
 11
124.3972625006
 21
260.253971206
 31
0.0
  0
ARC
  5
F3
330
1F
100
AcDbEntity
  8
OBRYS
100
AcDbCircle
 10
74.2874905849
 20
259.2539706845
 30
0.0
 40
1.000000000000136
100
AcDbArc
 50
33.0557311508
 51
90.0
  0
LINE
  5
F4
330
1F
100
AcDbEntity
  8
OBRYS
100
AcDbLine
 10
71.3972631264
 20
260.253971206
 30
0.0
 11
74.287490489
 21
260.253971206
 31
0.0
  0
ARC
  5
F5
330
1F
100
AcDbEntity
  8
OBRYS
100
AcDbCircle
 10
67.3972628135
 20
228.8998687182
 30
0.0
 40
1.000000000000043
100
AcDbArc
 50
360.0
 51
73.398450401
  0
ARC
  5
F6
330
1F
100
AcDbEntity
  8
OBRYS
100
AcDbCircle
 10
75.5431608473
 20
261.2539706845
 30
0.0
 40
1.0
100
AcDbArc
 50
16.601549599
 51
90.0
  0
ARC
  5
F7
330
1F
100
AcDbEntity
  8
OBRYS
100
AcDbCircle
 10
113.5431608473
 20
261.2539706845
 30
0.0
 40
1.000000000000427
100
AcDbArc
 50
16.601549599
 51
90.0
  0
ARC
  5
F8
330
1F
100
AcDbEntity
  8
OBRYS
100
AcDbCircle
 10
120.2513647798
 20
261.2539706845
 30
0.0
 40
1.00000000000028
100
AcDbArc
 50
90.0
 51
163.398450401
  0
LINE
  5
F9
330
1F
100
AcDbEntity
  8
OBRYS
100
AcDbLine
 10
124.3972625006
 20
262.2539715338
 30
0.0
 11
120.2513645757
 21
262.2539715338
 31
0.0
  0
ARC
  5
FA
330
1F
100
AcDbEntity
  8
OBRYS
100
AcDbCircle
 10
124.3972628135
 20
257.2539706845
 30
0.0
 40
5.000000000000057
100
AcDbArc
 50
0.0
 51
90.0
  0
LINE
  5
FB
330
1F
100
AcDbEntity
  8
OBRYS
100
AcDbLine
 10
129.3972633202
 20
214.2539711166
 30
0.0
 11
127.3972629923
 21
214.2539711166
 31
0.0
  0
LINE
  5
FC
330
1F
100
AcDbEntity
  8
OBRYS
100
AcDbLine
 10
113.5431616921
 20
262.2539715338
 30
0.0
 11
112.3972623963
 21
262.2539715338
 31
0.0
  0
LINE
  5
FD
330
1F
100
AcDbEntity
  8
OBRYS
100
AcDbLine
 10
83.3972632308
 20
262.2539715338
 30
0.0
 11
82.2513639349
 21
262.2539715338
 31
0.0
  0
LINE
  5
FE
330
1F
100
AcDbEntity
  8
OBRYS
100
AcDbLine
 10
68.3972626347
 20
214.2539711166
 30
0.0
 11
68.3972626347
 21
228.8998686671
 31
0.0
  0
LINE
  5
FF
330
1F
100
AcDbEntity
  8
OBRYS
100
AcDbLine
 10
66.3972623069
 20
227.6441985704
 30
0.0
 11
66.3972623069
 21
214.2539711166
 31
0.0
  0
ARC
  5
100
330
1F
100
AcDbEntity
  8
OBRYS
100
AcDbCircle
 10
71.3972628135
 20
257.2539706845
 30
0.0
 40
3.000000000000057
100
AcDbArc
 50
90.0
 51
180.0
  0
LINE
  5
101
330
1F
100
AcDbEntity
  8
OBRYS
100
AcDbLine
 10
68.3972626347
 20
235.6080727148
 30
0.0
 11
68.3972626347
 21
257.2539707143
 31
0.0
  0
ARC
  5
102
330
1F
100
AcDbEntity
  8
OBRYS
100
AcDbCircle
 10
68.3972628135
 20
232.2539706845
 30
0.0
 40
4.499999999999943
100
AcDbArc
 50
123.0557311509
 51
236.9442688491
  0
ARC
  5
103
330
1F
100
AcDbEntity
  8
OBRYS
100
AcDbCircle
 10
65.3972628135
 20
236.8637429131
 30
0.0
 40
0.9999999999998863
100
AcDbArc
 50
303.0557311509
 51
360.0
  0
LINE
  5
104
330
1F
100
AcDbEntity
  8
OBRYS
100
AcDbLine
 10
66.3972623069
 20
257.2539707143
 30
0.0
 11
66.3972623069
 21
236.8637428116
 31
0.0
  0
ARC
  5
105
330
1F
100
AcDbEntity
  8
OBRYS
100
AcDbCircle
 10
71.3972628135
 20
257.2539706845
 30
0.0
 40
5.000000000000227
100
AcDbArc
 50
90.0
 51
180.0
  0
LINE
  5
106
330
1F
100
AcDbEntity
  8
OBRYS
100
AcDbLine
 10
75.5431610513
 20
262.2539715338
 30
0.0
 11
71.3972631264
 21
262.2539715338
 31
0.0
  0
ARC
  5
107
330
1F
100
AcDbEntity
  8
OBRYS
100
AcDbCircle
 10
124.3972628135
 20
257.2539706845
 30
0.0
 40
2.999999999999943
100
AcDbArc
 50
0.0
 51
90.0
  0
ARC
  5
108
330
1F
100
AcDbEntity
  8
OBRYS
100
AcDbCircle
 10
121.5070350422
 20
259.2539706845
 30
0.0
 40
0.9999999999999432
100
AcDbArc
 50
90.0
 51
146.9442688491
  0
ARC
  5
109
330
1F
100
AcDbEntity
  8
OBRYS
100
AcDbCircle
 10
116.8972628135
 20
262.2539706845
 30
0.0
 40
4.500000000000033
100
AcDbArc
 50
213.0557311509
 51
326.9442688491
  0
ARC
  5
10A
330
1F
100
AcDbEntity
  8
OBRYS
100
AcDbCircle
 10
112.2874905849
 20
259.2539706845
 30
0.0
 40
1.000000000000029
100
AcDbArc
 50
33.0557311508
 51
90.0
  0
LINE
  5
10B
330
1F
100
AcDbEntity
  8
OBRYS
100
AcDbLine
 10
83.5070354287
 20
260.253971206
 30
0.0
 11
85.3972626273
 21
260.253971206
 31
0.0
  0
LINE
  5
10C
330
1F
100
AcDbEntity
  8
OBRYS
100
AcDbLine
 10
110.3972629998
 20
260.253971206
 30
0.0
 11
112.2874901984
 21
260.253971206
 31
0.0
  0
ARC
  5
10D
330
1F
100
AcDbEntity
  8
OBRYS
100
AcDbCircle
 10
83.5070350422
 20
259.2539706845
 30
0.0
 40
0.9999999999986926
100
AcDbArc
 50
90.0
 51
146.9442688492
  0
ARC
  5
10E
330
1F
100
AcDbEntity
  8
OBRYS
100
AcDbCircle
 10
78.8972628135
 20
262.2539706845
 30
0.0
 40
4.500000000002462
100
AcDbArc
 50
213.0557311508
 51
326.9442688492
  0
ARC
  5
10F
330
1F
100
AcDbEntity
  8
OBRYS
100
AcDbCircle
 10
130.3972628135
 20
227.6441984558
 30
0.0
 40
1.000000000000341
100
AcDbArc
 50
123.0557311509
 51
180.0
  0
ARC
  5
110
330
1F
100
AcDbEntity
  8
OBRYS
100
AcDbCircle
 10
130.3972628135
 20
236.8637429131
 30
0.0
 40
1.000000000000181
100
AcDbArc
 50
180.0
 51
236.9442688491
  0
ARC
  5
111
330
1F
100
AcDbEntity
  8
OBRYS
100
AcDbCircle
 10
65.3972628135
 20
227.6441984558
 30
0.0
 40
1.000000000000087
100
AcDbArc
 50
0.0
 51
56.9442688491
  0
ARC
  5
112
330
1F
100
AcDbEntity
  8
OBRYS
100
AcDbCircle
 10
68.3972628135
 20
232.2539706845
 30
0.0
 40
2.499999999999981
100
AcDbArc
 50
106.601549599
 51
253.398450401
  0
ARC
  5
113
330
1F
100
AcDbEntity
  8
OBRYS
100
AcDbCircle
 10
82.2513647798
 20
261.2539706845
 30
0.0
 40
1.000000000000227
100
AcDbArc
 50
90.0
 51
163.398450401
  0
ARC
  5
114
330
1F
100
AcDbEntity
  8
OBRYS
100
AcDbCircle
 10
67.3972628135
 20
235.6080726507
 30
0.0
 40
0.9999999999999432
100
AcDbArc
 50
286.601549599
 51
0.0
  0
LINE
  5
115
330
1F
100
AcDbEntity
  8
OBRYS
100
AcDbLine
 10
129.3972633202
 20
214.2539711166
 30
0.0
 11
129.3972633202
 21
227.6441985704
 31
0.0
  0
LINE
  5
116
330
1F
100
AcDbEntity
  8
OBRYS
100
AcDbLine
 10
127.3972629923
 20
228.8998686671
 30
0.0
 11
127.3972629923
 21
214.2539711166
 31
0.0
  0
ARC
  5
117
330
1F
100
AcDbEntity
  8
OBRYS
100
AcDbCircle
 10
116.8972628135
 20
262.2539706845
 30
0.0
 40
2.499999999999559
100
AcDbArc
 50
196.601549599
 51
343.398450401
  0
ARC
  5
118
330
1F
100
AcDbEntity
  8
OBRYS
100
AcDbCircle
 10
128.3972628135
 20
228.8998687182
 30
0.0
 40
1.000000000000343
100
AcDbArc
 50
106.601549599
 51
180.0
  0
ARC
  5
119
330
1F
100
AcDbEntity
  8
OBRYS
100
AcDbCircle
 10
78.8972628135
 20
262.2539706845
 30
0.0
 40
2.500000000000073
100
AcDbArc
 50
196.601549599
 51
343.398450401
  0
ARC
  5
11A
330
1F
100
AcDbEntity
  8
OBRYS
100
AcDbCircle
 10
127.3972628135
 20
232.2539706845
 30
0.0
 40
4.499999999999814
100
AcDbArc
 50
303.0557311509
 51
56.9442688491
  0
LINE
  5
11B
330
1F
100
AcDbEntity
  8
OBRYS
100
AcDbLine
 10
129.3972633202
 20
236.8637428116
 30
0.0
 11
129.3972633202
 21
257.2539707143
 31
0.0
  0
ARC
  5
11C
330
1F
100
AcDbEntity
  8
OBRYS
100
AcDbCircle
 10
127.3972628135
 20
232.2539706845
 30
0.0
 40
2.499999999999702
100
AcDbArc
 50
286.601549599
 51
73.398450401
  0
LINE
  5
11D
330
1F
100
AcDbEntity
  8
OBRYS
100
AcDbLine
 10
129.3972633202
 20
209.253970297
 30
0.0
 11
127.3972629923
 21
209.253970297
 31
0.0
  0
LINE
  5
11E
330
1F
100
AcDbEntity
  8
OBRYS
100
AcDbLine
 10
129.3972633202
 20
214.2539711166
 30
0.0
 11
129.3972633202
 21
209.253970297
 31
0.0
  0
LINE
  5
11F
330
1F
100
AcDbEntity
  8
OBRYS
100
AcDbLine
 10
127.3972629923
 20
209.253970297
 30
0.0
 11
127.3972629923
 21
214.2539711166
 31
0.0
  0
ARC
  5
120
330
1F
100
AcDbEntity
  8
OBRYS
100
AcDbCircle
 10
130.3972628135
 20
203.7539706845
 30
0.0
 40
1.000000000000114
100
AcDbArc
 50
180.0
 51
270.0
  0
LINE
  5
121
330
1F
100
AcDbEntity
  8
OBRYS
100
AcDbLine
 10
130.3972616214
 20
202.7539701629
 30
0.0
 11
132.8736148197
 21
202.7539701629
 31
0.0
  0
ARC
  5
122
330
1F
100
AcDbEntity
  8
OBRYS
100
AcDbCircle
 10
130.3972628135
 20
203.7539706845
 30
0.0
 40
3.000000000000057
100
AcDbArc
 50
180.0
 51
270.0
  0
LINE
  5
123
330
1F
100
AcDbEntity
  8
OBRYS
100
AcDbLine
 10
132.7954656798
 20
200.7539698351
 30
0.0
 11
130.3972616214
 21
200.7539698351
 31
0.0
  0
LINE
  5
124
330
1F
100
AcDbEntity
  8
OBRYS
100
AcDbLine
 10
129.3972633202
 20
209.253970297
 30
0.0
 11
129.3972633202
 21
203.7539703268
 31
0.0
  0
LINE
  5
125
330
1F
100
AcDbEntity
  8
OBRYS
100
AcDbLine
 10
127.3972629923
 20
203.7539703268
 30
0.0
 11
127.3972629923
 21
209.253970297
 31
0.0
  0
LINE
  5
126
330
1F
100
AcDbEntity
  8
OBRYS
100
AcDbLine
 10
62.9209108073
 20
202.7539701629
 30
0.0
 11
65.3972640056
 21
202.7539701629
 31
0.0
  0
ARC
  5
127
330
1F
100
AcDbEntity
  8
OBRYS
100
AcDbCircle
 10
65.3972628135
 20
203.7539706845
 30
0.0
 40
0.9999999999999432
100
AcDbArc
 50
270.0
 51
0.0
  0
ARC
  5
128
330
1F
100
AcDbEntity
  8
OBRYS
100
AcDbCircle
 10
65.3972628135
 20
203.7539706845
 30
0.0
 40
2.999999999999972
100
AcDbArc
 50
270.0
 51
0.0
  0
LINE
  5
129
330
1F
100
AcDbEntity
  8
OBRYS
100
AcDbLine
 10
68.3972626347
 20
209.253970297
 30
0.0
 11
68.3972626347
 21
203.7539703268
 31
0.0
  0
LINE
  5
12A
330
1F
100
AcDbEntity
  8
OBRYS
100
AcDbLine
 10
66.3972623069
 20
203.7539703268
 30
0.0
 11
66.3972623069
 21
209.253970297
 31
0.0
  0
ARC
  5
12B
330
1F
100
AcDbEntity
  8
OBRYS
100
AcDbCircle
 10
134.462650435
 20
201.8347654716
 30
0.0
 40
10.18036011510698
100
AcDbArc
 50
267.1014348574
 51
272.8985651426
  0
ARC
  5
12C
330
1F
100
AcDbEntity
  8
OBRYS
100
AcDbCircle
 10
132.1263936009
 20
191.82129353
 30
0.0
 40
1.827944204032237
100
AcDbArc
 50
347.1313864952
 51
355.1715255106
  0
LINE
  5
12D
330
1F
100
AcDbEntity
  8
OBRYS
100
AcDbLine
 10
133.4814890642
 20
191.4141809065
 30
0.0
 11
133.9084259588
 21
191.4141809065
 31
0.0
  0
ARC
  5
12E
330
1F
100
AcDbEntity
  8
OBRYS
100
AcDbCircle
 10
134.411569839
 20
200.6658433151
 30
0.0
 40
9.298295949831529
100
AcDbArc
 50
255.4089788092
 51
264.2592739618
  0
ARC
  5
12F
330
1F
100
AcDbEntity
  8
OBRYS
100
AcDbCircle
 10
132.0448626634
 20
191.6839585114
 30
0.0
 40
0.0293900199718645
100
AcDbArc
 50
273.3459887855
 51
325.7787753263
  0
ARC
  5
130
330
1F
100
AcDbEntity
  8
OBRYS
100
AcDbCircle
 10
134.3828292243
 20
200.6658433151
 30
0.0
 40
9.2982959498315
100
AcDbArc
 50
255.4089788092
 51
264.2592739618
  0
LINE
  5
131
330
1F
100
AcDbEntity
  8
OBRYS
100
AcDbLine
 10
133.4814890642
 20
191.4141809065
 30
0.0
 11
133.4527484495
 21
191.4141809065
 31
0.0
  0
ARC
  5
132
330
1F
100
AcDbEntity
  8
OBRYS
100
AcDbCircle
 10
134.3315298312
 20
201.8231483335
 30
0.0
 40
10.16874219561643
100
AcDbArc
 50
267.834138774
 51
270.3703720562
  0
ARC
  5
133
330
1F
100
AcDbEntity
  8
OBRYS
100
AcDbCircle
 10
136.6681122267
 20
191.8212638214
 30
0.0
 40
1.827919331390108
100
AcDbArc
 50
184.8276058207
 51
192.8678364137
  0
LINE
  5
134
330
1F
100
AcDbEntity
  8
OBRYS
100
AcDbLine
 10
134.9380254168
 20
191.4141809065
 30
0.0
 11
134.8860985953
 21
191.4141809065
 31
0.0
  0
LWPOLYLINE
  5
135
330
1F
100
AcDbEntity
  8
OBRYS
100
AcDbPolyline
 90
        8
 70
   128
 43
0.0
 10
136.7318681795
 20
191.6616705674
 10
136.7374114115
 20
191.6576621551
 10
136.7422244865
 20
191.6552183646
 10
136.746221723
 20
191.6544062514
 10
136.7494105715
 20
191.6552183646
 10
136.7517873067
 20
191.6576621551
 10
136.7533519287
 20
191.6617338974
 10
136.754100712
 20
191.6674298662
  0
ARC
  5
136
330
1F
100
AcDbEntity
  8
OBRYS
100
AcDbCircle
 10
134.4116953298
 20
200.6658433151
 30
0.0
 40
9.2982959498315
100
AcDbArc
 50
275.7407260382
 51
284.5910211908
  0
LINE
  5
137
330
1F
100
AcDbEntity
  8
OBRYS
100
AcDbLine
 10
134.9380254168
 20
191.4141809065
 30
0.0
 11
135.3417761046
 21
191.4141809065
 31
0.0
  0
ARC
  5
138
330
1F
100
AcDbEntity
  8
OBRYS
100
AcDbCircle
 10
133.1551569698
 20
191.8214236889
 30
0.0
 40
1.828788282749543
100
AcDbArc
 50
347.1332450102
 51
355.1696669956
  0
LINE
  5
139
330
1F
100
AcDbEntity
  8
OBRYS
100
AcDbLine
 10
131.9641969521
 20
192.3533005137
 30
0.0
 11
130.1972619612
 21
192.3533005137
 31
0.0
  0
LINE
  5
13A
330
1F
100
AcDbEntity
  8
OBRYS
100
AcDbLine
 10
134.9374591727
 20
191.6674298662
 30
0.0
 11
134.9380254168
 21
191.4141809065
 31
0.0
  0
LINE
  5
13B
330
1F
100
AcDbEntity
  8
OBRYS
100
AcDbLine
 10
134.8860985953
 20
191.4141809065
 30
0.0
 11
134.8866648395
 21
191.6674298662
 31
0.0
  0
ARC
  5
13C
330
1F
100
AcDbEntity
  8
OBRYS
100
AcDbCircle
 10
61.4629957959
 20
201.8231483335
 30
0.0
 40
10.16874219561643
100
AcDbArc
 50
269.6296279438
 51
272.165861226
  0
LINE
  5
13D
330
1F
100
AcDbEntity
  8
OBRYS
100
AcDbLine
 10
62.3417771775
 20
191.4141809065
 30
0.0
 11
62.3130365629
 21
191.4141809065
 31
0.0
  0
ARC
  5
13E
330
1F
100
AcDbEntity
  8
OBRYS
100
AcDbCircle
 10
61.4116964027
 20
200.6658433151
 30
0.0
 40
9.298295949831616
100
AcDbArc
 50
275.7407260382
 51
284.5910211908
  0
ARC
  5
13F
330
1F
100
AcDbEntity
  8
OBRYS
100
AcDbCircle
 10
63.7510068508
 20
191.6863278013
 30
0.0
 40
0.0318564417635145
100
AcDbArc
 50
216.3859703787
 51
264.4892655095
  0
ARC
  5
140
330
1F
100
AcDbEntity
  8
OBRYS
100
AcDbCircle
 10
61.3829557881
 20
200.6658433151
 30
0.0
 40
9.298295949831616
100
AcDbArc
 50
275.7407260382
 51
284.5910211908
  0
LINE
  5
141
330
1F
100
AcDbEntity
  8
OBRYS
100
AcDbLine
 10
61.8860996682
 20
191.4141809065
 30
0.0
 11
62.3130365629
 21
191.4141809065
 31
0.0
  0
ARC
  5
142
330
1F
100
AcDbEntity
  8
OBRYS
100
AcDbCircle
 10
63.6681320262
 20
191.82129353
 30
0.0
 40
1.82794420403223
100
AcDbArc
 50
184.8284744894
 51
192.8686135048
  0
ARC
  5
143
330
1F
100
AcDbEntity
  8
OBRYS
100
AcDbCircle
 10
61.331875192
 20
201.8347654716
 30
0.0
 40
10.18036011510698
100
AcDbArc
 50
267.1014348574
 51
272.8985651426
  0
ARC
  5
144
330
1F
100
AcDbEntity
  8
OBRYS
100
AcDbCircle
 10
62.6393686572
 20
191.8214236889
 30
0.0
 40
1.828788282749543
100
AcDbArc
 50
184.8303330044
 51
192.8667549898
  0
LINE
  5
145
330
1F
100
AcDbEntity
  8
OBRYS
100
AcDbLine
 10
60.4527495224
 20
191.4141809065
 30
0.0
 11
60.8565002102
 21
191.4141809065
 31
0.0
  0
ARC
  5
146
330
1F
100
AcDbEntity
  8
OBRYS
100
AcDbCircle
 10
61.3828302972
 20
200.6658433151
 30
0.0
 40
9.298295949831527
100
AcDbArc
 50
255.4089788092
 51
264.2592739618
  0
LWPOLYLINE
  5
147
330
1F
100
AcDbEntity
  8
OBRYS
100
AcDbPolyline
 90
        8
 70
   128
 43
0.0
 10
59.040424915
 20
191.6674298662
 10
59.0411736984
 20
191.6617338974
 10
59.0427383203
 20
191.6576621551
 10
59.0451150555
 20
191.6552183646
 10
59.048303904
 20
191.6544062514
 10
59.0523011405
 20
191.6552183646
 10
59.0571142156
 20
191.6576621551
 10
59.0626574475
 20
191.6616705674
  0
LINE
  5
148
330
1F
100
AcDbEntity
  8
OBRYS
100
AcDbLine
 10
60.9084270317
 20
191.4141809065
 30
0.0
 11
60.8565002102
 21
191.4141809065
 31
0.0
  0
ARC
  5
149
330
1F
100
AcDbEntity
  8
OBRYS
100
AcDbCircle
 10
59.1264134003
 20
191.8212638214
 30
0.0
 40
1.827919331390087
100
AcDbArc
 50
347.1321635863
 51
355.1723941793
  0
LINE
  5
14A
330
1F
100
AcDbEntity
  8
OBRYS
100
AcDbLine
 10
65.5972636659
 20
192.3533005137
 30
0.0
 11
63.830328675
 21
192.3533005137
 31
0.0
  0
LINE
  5
14B
330
1F
100
AcDbEntity
  8
OBRYS
100
AcDbLine
 10
60.8565002102
 20
191.4141809065
 30
0.0
 11
60.8570664544
 21
191.6674298662
 31
0.0
  0
LINE
  5
14C
330
1F
100
AcDbEntity
  8
OBRYS
100
AcDbLine
 10
60.9078607876
 20
191.6674298662
 30
0.0
 11
60.9084270317
 21
191.4141809065
 31
0.0
  0
LINE
  5
14D
330
1F
100
AcDbEntity
  8
OBRYS
100
AcDbLine
 10
122.1911269594
 20
197.8618500251
 30
0.0
 11
122.8512148727
 21
197.8264411408
 31
0.0
  0
LINE
  5
14E
330
1F
100
AcDbEntity
  8
OBRYS
100
AcDbLine
 10
132.9634017665
 20
201.8437811602
 30
0.0
 11
131.4367591757
 21
217.3195981849
 31
0.0
  0
LINE
  5
14F
330
1F
100
AcDbEntity
  8
OBRYS
100
AcDbLine
 10
128.3516507018
 20
229.9433118859
 30
0.0
 11
128.5798694361
 21
234.4565689526
 31
0.0
  0
LINE
  5
150
330
1F
100
AcDbEntity
  8
OBRYS
100
AcDbLine
 10
129.3972633202
 20
245.7329228017
 30
0.0
 11
129.7847568411
 21
249.5499344039
 31
0.0
  0
ARC
  5
151
330
1F
100
AcDbEntity
  8
OBRYS
100
AcDbCircle
 10
123.8562443466
 20
250.568152713
 30
0.0
 40
6.015315528195585
100
AcDbArc
 50
350.2545603634
 51
22.9049540269
  0
LINE
  5
152
330
1F
100
AcDbEntity
  8
OBRYS
100
AcDbLine
 10
127.3972629923
 20
255.4307875652
 30
0.0
 11
126.8893792648
 21
255.7627761233
 31
0.0
  0
ARC
  5
153
330
1F
100
AcDbEntity
  8
OBRYS
100
AcDbCircle
 10
121.4444794581
 20
248.3872818104
 30
0.0
 40
9.167597885473825
100
AcDbArc
 50
53.5637012319
 51
83.0495693639
  0
ARC
  5
154
330
1F
100
AcDbEntity
  8
OBRYS
100
AcDbCircle
 10
124.9230222332
 20
247.8255088685
 30
0.0
 40
9.948225732503914
100
AcDbArc
 50
75.64205991
 51
103.7773556967
  0
ARC
  5
155
330
1F
100
AcDbEntity
  8
OBRYS
100
AcDbCircle
 10
124.9230222332
 20
247.8255088685
 30
0.0
 40
9.948225732503962
100
AcDbArc
 50
356.8407372654
 51
63.2721866313
  0
LINE
  5
156
330
1F
100
AcDbEntity
  8
OBRYS
100
AcDbLine
 10
134.8561286349
 20
247.2772465516
 30
0.0
 11
140.6226656754
 21
194.3924573678
 31
0.0
  0
LINE
  5
157
330
1F
100
AcDbEntity
  8
OBRYS
100
AcDbLine
 10
122.0584432948
 20
195.3882386405
 30
0.0
 11
122.1911269594
 21
197.8618500251
 31
0.0
  0
ARC
  5
158
330
1F
100
AcDbEntity
  8
OBRYS
100
AcDbCircle
 10
130.7562500294
 20
201.626051858
 30
0.0
 40
2.217863695072924
100
AcDbArc
 50
267.8609245516
 51
5.6338252836
  0
ARC
  5
159
330
1F
100
AcDbEntity
  8
OBRYS
100
AcDbCircle
 10
126.557416616
 20
199.6305172167
 30
0.0
 40
4.121968249533032
100
AcDbArc
 50
205.9555269633
 51
356.9296163539
  0
LINE
  5
15A
330
1F
100
AcDbEntity
  8
OBRYS
100
AcDbLine
 10
131.4367591757
 20
217.3195981849
 30
0.0
 11
132.8332252223
 21
233.4073537457
 31
0.0
  0
ARC
  5
15B
330
1F
100
AcDbEntity
  8
OBRYS
100
AcDbCircle
 10
131.72016693
 20
233.5039706845
 30
0.0
 40
1.11724406245735
100
AcDbArc
 50
355.0389842718
 51
113.2586125505
  0
LWPOLYLINE
  5
15C
330
1F
100
AcDbEntity
  8
OBRYS
100
AcDbPolyline
 90
       10
 70
   128
 43
0.0
 10
140.8972642738
 20
191.874135049
 10
140.8930919487
 20
191.9123937804
 10
140.8807016332
 20
192.0260076839
 10
140.8604733068
 20
192.2115271408
 10
140.8330179173
 20
192.4633120615
 10
140.799173655
 20
192.7737106997
 10
140.7599649746
 20
193.1332980711
 10
140.7165839691
 20
193.5311404485
 10
140.6703493912
 20
193.9551567156
 10
140.6226656754
 20
194.3924573678
  0
LWPOLYLINE
  5
15D
330
1F
100
AcDbEntity
  8
OBRYS
100
AcDbPolyline
 90
       10
 70
   128
 43
0.0
 10
141.0043887217
 20
193.871263178
 10
140.9985884447
 20
193.8791831452
 10
140.9813664276
 20
193.9026971776
 10
140.9532479364
 20
193.9410900194
 10
140.9150823373
 20
193.9931993801
 10
140.8680319209
 20
194.0574420113
 10
140.8135271985
 20
194.1318621356
 10
140.7532221992
 20
194.2141985017
 10
140.6889497656
 20
194.3019551653
 10
140.6226656754
 20
194.3924573678
  0
LINE
  5
15E
330
1F
100
AcDbEntity
  8
OBRYS
100
AcDbLine
 10
141.0043887217
 20
193.871263178
 30
0.0
 11
140.8972642738
 21
191.874135049
 31
0.0
  0
LINE
  5
15F
330
1F
100
AcDbEntity
  8
OBRYS
100
AcDbLine
 10
140.8972642738
 20
191.874135049
 30
0.0
 11
121.9245377351
 21
192.8918247539
 31
0.0
  0
LWPOLYLINE
  5
160
330
1F
100
AcDbEntity
  8
OBRYS
100
AcDbPolyline
 90
        9
 70
   128
 43
0.0
 10
122.0584432948
 20
195.3882386405
 10
122.0323196966
 20
194.9012128133
 10
122.0072000641
 20
194.4329028446
 10
121.9840492476
 20
194.0013056118
 10
121.9637575913
 20
193.6230061073
 10
121.9471055437
 20
193.3125478644
 10
121.9347301293
 20
193.0818555373
 10
121.927110048
 20
192.9397953171
 10
121.9245377351
 20
192.8918247539
  0
ARC
  5
161
330
1F
100
AcDbEntity
  8
OBRYS
100
AcDbCircle
 10
70.8715033938
 20
247.8255088685
 30
0.0
 40
9.948225732503921
100
AcDbArc
 50
76.2226443033
 51
104.3579400901
  0
ARC
  5
162
330
1F
100
AcDbEntity
  8
OBRYS
100
AcDbCircle
 10
70.8715033938
 20
247.8255088685
 30
0.0
 40
9.948225732503953
100
AcDbArc
 50
116.7278133687
 51
183.1592627346
  0
ARC
  5
163
330
1F
100
AcDbEntity
  8
OBRYS
100
AcDbCircle
 10
74.3500461689
 20
248.3872818104
 30
0.0
 40
9.167597885473825
100
AcDbArc
 50
96.9504306361
 51
126.4362987681
  0
ARC
  5
164
330
1F
100
AcDbEntity
  8
OBRYS
100
AcDbCircle
 10
71.9382812805
 20
250.568152713
 30
0.0
 40
6.015315528195604
100
AcDbArc
 50
157.0950459732
 51
189.7454396366
  0
LINE
  5
165
330
1F
100
AcDbEntity
  8
OBRYS
100
AcDbLine
 10
68.3972626347
 20
255.4307875652
 30
0.0
 11
68.9051463623
 21
255.7627761233
 31
0.0
  0
LINE
  5
166
330
1F
100
AcDbEntity
  8
OBRYS
100
AcDbLine
 10
66.3972623069
 20
245.7329228017
 30
0.0
 11
66.0097687859
 21
249.5499344039
 31
0.0
  0
LINE
  5
167
330
1F
100
AcDbEntity
  8
OBRYS
100
AcDbLine
 10
67.4428749252
 20
229.9433118859
 30
0.0
 11
67.2146561909
 21
234.4565689526
 31
0.0
  0
ARC
  5
168
330
1F
100
AcDbEntity
  8
OBRYS
100
AcDbCircle
 10
64.0743586971
 20
233.5039706845
 30
0.0
 40
1.117244062457336
100
AcDbArc
 50
66.7413874497
 51
184.9610157282
  0
LINE
  5
169
330
1F
100
AcDbEntity
  8
OBRYS
100
AcDbLine
 10
64.3577664513
 20
217.3195981849
 30
0.0
 11
62.9613004047
 21
233.4073537457
 31
0.0
  0
LINE
  5
16A
330
1F
100
AcDbEntity
  8
OBRYS
100
AcDbLine
 10
62.8311238606
 20
201.8437811602
 30
0.0
 11
64.3577664513
 21
217.3195981849
 31
0.0
  0
ARC
  5
16B
330
1F
100
AcDbEntity
  8
OBRYS
100
AcDbCircle
 10
65.0382755976
 20
201.626051858
 30
0.0
 40
2.217863695072924
100
AcDbArc
 50
174.3661747164
 51
272.1390754484
  0
ARC
  5
16C
330
1F
100
AcDbEntity
  8
OBRYS
100
AcDbCircle
 10
69.237109011
 20
199.6305172167
 30
0.0
 40
4.121968249533071
100
AcDbArc
 50
183.0703836461
 51
334.0444730367
  0
LINE
  5
16D
330
1F
100
AcDbEntity
  8
OBRYS
100
AcDbLine
 10
73.6033986676
 20
197.8618500251
 30
0.0
 11
72.9433107544
 21
197.8264411408
 31
0.0
  0
LINE
  5
16E
330
1F
100
AcDbEntity
  8
OBRYS
100
AcDbLine
 10
73.7360823322
 20
195.3882386405
 30
0.0
 11
73.6033986676
 21
197.8618500251
 31
0.0
  0
LINE
  5
16F
330
1F
100
AcDbEntity
  8
OBRYS
100
AcDbLine
 10
60.9383969922
 20
247.2772465516
 30
0.0
 11
55.1718599517
 21
194.3924573678
 31
0.0
  0
LWPOLYLINE
  5
170
330
1F
100
AcDbEntity
  8
OBRYS
100
AcDbPolyline
 90
        9
 70
   128
 43
0.0
 10
73.869987892
 20
192.8918247539
 10
73.867415579
 20
192.9397953171
 10
73.8597954977
 20
193.0818555373
 10
73.8474200834
 20
193.3125478644
 10
73.8307680357
 20
193.6230061073
 10
73.8104763795
 20
194.0013056118
 10
73.7873255629
 20
194.4329028446
 10
73.7622059304
 20
194.9012128133
 10
73.7360823322
 20
195.3882386405
  0
LINE
  5
171
330
1F
100
AcDbEntity
  8
OBRYS
100
AcDbLine
 10
73.869987892
 20
192.8918247539
 30
0.0
 11
54.8972613532
 21
191.874135049
 31
0.0
  0
LWPOLYLINE
  5
172
330
1F
100
AcDbEntity
  8
OBRYS
100
AcDbPolyline
 90
       10
 70
   128
 43
0.0
 10
55.1718599517
 20
194.3924573678
 10
55.1241762359
 20
193.9551567156
 10
55.077941658
 20
193.5311404485
 10
55.0345606524
 20
193.1332980711
 10
54.9953519721
 20
192.7737106997
 10
54.9615077097
 20
192.4633120615
 10
54.9340523202
 20
192.2115271408
 10
54.9138239939
 20
192.0260076839
 10
54.9014336783
 20
191.9123937804
 10
54.8972613532
 20
191.874135049
  0
LINE
  5
173
330
1F
100
AcDbEntity
  8
OBRYS
100
AcDbLine
 10
54.7901369054
 20
193.871263178
 30
0.0
 11
54.8972613532
 21
191.874135049
 31
0.0
  0
LWPOLYLINE
  5
174
330
1F
100
AcDbEntity
  8
OBRYS
100
AcDbPolyline
 90
       10
 70
   128
 43
0.0
 10
55.1718599517
 20
194.3924573678
 10
55.1055758614
 20
194.3019551653
 10
55.0413034279
 20
194.2141985017
 10
54.9809984285
 20
194.1318621356
 10
54.9264937062
 20
194.0574420113
 10
54.8794432897
 20
193.9931993801
 10
54.8412776906
 20
193.9410900194
 10
54.8131591994
 20
193.9026971776
 10
54.7959371824
 20
193.8791831452
 10
54.7901369054
 20
193.871263178
  0
LINE
  5
175
330
1F
100
AcDbEntity
  8
0
  6
SLD-Plná
 62
     7
100
AcDbLine
 10
55.3039848227
 20
195.953022452
 30
0.0
 11
55.3349643368
 21
195.8883029837
 31
0.0
  0
LINE
  5
176
330
1F
100
AcDbEntity
  8
0
  6
SLD-Plná
 62
     7
100
AcDbLine
 10
55.2745699305
 20
199.7551505882
 30
0.0
 11
55.7758896966
 21
200.8454163987
 31
0.0
  0
LINE
  5
177
330
1F
100
AcDbEntity
  8
0
  6
SLD-Plná
 62
     7
100
AcDbLine
 10
140.0186359305
 20
200.8454163987
 30
0.0
 11
140.5199556965
 21
199.7551505882
 31
0.0
  0
LINE
  5
178
330
1F
100
AcDbEntity
  8
0
  6
SLD-Plná
 62
     7
100
AcDbLine
 10
140.4595612902
 20
195.8883029837
 30
0.0
 11
140.4905408043
 21
195.953022452
 31
0.0
  0
LINE
  5
179
330
1F
100
AcDbEntity
  8
0
  6
SLD-Plná
 62
     7
100
AcDbLine
 10
122.0584432948
 20
195.3882386405
 30
0.0
 11
140.6226656754
 21
194.3924573678
 31
0.0
  0
LINE
  5
17A
330
1F
100
AcDbEntity
  8
0
  6
SLD-Plná
 62
     7
100
AcDbLine
 10
55.1718599517
 20
194.3924573678
 30
0.0
 11
73.7360823322
 21
195.3882386405
 31
0.0
  0
DIMENSION
  5
17B
330
1F
100
AcDbEntity
  8
KOTY
100
AcDbDimension
  2
_D
 10
127.3972628135
 20
178.9669671563
 30
0.0
 11
97.8972628135
 21
178.9669671563
 31
0.0
 70
   160
  1
<>
 71
     2
 42
-1.0
  3
SLDDIMSTYLE0
100
AcDbAlignedDimension
 13
68.3972628135
 23
209.2539706845
 33
0.0
 14
127.3972628135
 24
203.7539706845
 34
0.0
 50
0.0
100
AcDbRotatedDimension
  0
DIMENSION
  5
186
330
1F
100
AcDbEntity
  8
KOTY
100
AcDbDimension
  2
_D_1
 10
163.1847064968
 20
195.5085489671
 30
0.0
 11
163.1847064968
 21
224.5765092674
 31
0.0
 70
   160
  1
<>
 71
     2
 42
-1.0
  3
SLDDIMSTYLE0
100
AcDbAlignedDimension
 13
116.8972628135
 23
257.7539706845
 33
0.0
 14
126.557416616
 24
195.5085489671
 34
0.0
 50
90.0
100
AcDbRotatedDimension
  0
DIMENSION
  5
190
330
1F
100
AcDbEntity
  8
KOTY
100
AcDbDimension
  2
_D_2
 10
171.8972628135
 20
200.7539706845
 30
0.0
 11
171.8972628135
 21
232.8539706845
 31
0.0
 70
   160
  1
<>
 71
     2
 42
-1.0
  3
SLDDIMSTYLE0
100
AcDbAlignedDimension
 13
112.3972628135
 23
264.9539706845
 33
0.0
 14
138.3972628135
 24
200.7539706845
 34
0.0
 50
90.0
100
AcDbRotatedDimension
  0
DIMENSION
  5
19A
330
1F
100
AcDbEntity
  8
KOTY
100
AcDbDimension
  2
_D_3
 10
41.641943637
 20
200.7539706845
 30
0.0
 11
41.641943637
 21
229.630103418
 31
0.0
 70
   160
  1
<>
 71
     2
 42
-1.0
  3
SLDDIMSTYLE0
100
AcDbAlignedDimension
 13
78.8972628135
 23
257.7539706844
 33
0.0
 14
56.1936546165
 24
200.7539706845
 34
0.0
 50
90.0
100
AcDbRotatedDimension
  0
DIMENSION
  5
1A4
330
1F
100
AcDbEntity
  8
KOTY
100
AcDbDimension
  2
_D_4
 10
144.6972628135
 20
172.7621740052
 30
0.0
 11
97.8972628135
 21
172.7621740052
 31
0.0
 70
   160
  1
<>
 71
     2
 42
-1.0
  3
SLDDIMSTYLE0
100
AcDbAlignedDimension
 13
51.0972628135
 23
197.8471847305
 33
0.0
 14
144.6972628135
 24
197.8471847305
 34
0.0
 50
0.0
100
AcDbRotatedDimension
  0
LINE
  5
1AE
330
1F
100
AcDbEntity
  8
OBRYS
100
AcDbLine
 10
219.7555742121
 20
194.5471835751
 30
0.0
 11
229.7555739885
 21
194.5471835751
 31
0.0
  0
LINE
  5
1AF
330
1F
100
AcDbEntity
  8
OBRYS
100
AcDbLine
 10
229.7555739885
 20
201.147185402
 30
0.0
 11
219.7555742121
 21
201.147185402
 31
0.0
  0
LINE
  5
1B0
330
1F
100
AcDbEntity
  8
OBRYS
100
AcDbLine
 10
219.7555742121
 20
196.168660881
 30
0.0
 11
219.7554526745
 21
196.168660881
 31
0.0
  0
LINE
  5
1B1
330
1F
100
AcDbEntity
  8
OBRYS
100
AcDbLine
 10
216.7554521827
 20
257.7539698649
 30
0.0
 11
217.2554527303
 21
257.7539698649
 31
0.0
  0
LINE
  5
1B2
330
1F
100
AcDbEntity
  8
OBRYS
100
AcDbLine
 10
232.2554523951
 20
257.7539698649
 30
0.0
 11
232.7554529427
 21
257.7539698649
 31
0.0
  0
LINE
  5
1B3
330
1F
100
AcDbEntity
  8
OBRYS
100
AcDbLine
 10
227.5830862006
 20
194.2256686706
 30
0.0
 11
227.2615696663
 21
194.5471835751
 31
0.0
  0
LINE
  5
1B4
330
1F
100
AcDbEntity
  8
OBRYS
100
AcDbLine
 10
222.2493354591
 20
194.5471835751
 30
0.0
 11
221.9278189248
 21
194.2256686706
 31
0.0
  0
ARC
  5
1B5
330
1F
100
AcDbEntity
  8
OBRYS
100
AcDbCircle
 10
224.7554525627
 20
200.6733019205
 30
0.0
 40
9.320000000000014
100
AcDbArc
 50
284.6088858976
 51
289.2452085987
  0
ARC
  5
1B6
330
1F
100
AcDbEntity
  8
OBRYS
100
AcDbCircle
 10
224.7554525627
 20
200.6733019205
 30
0.0
 40
9.320000000000045
100
AcDbArc
 50
250.7547914013
 51
255.3911141024
  0
LINE
  5
1B7
330
1F
100
AcDbEntity
  8
OBRYS
100
AcDbLine
 10
226.7554526577
 20
202.7539701629
 30
0.0
 11
226.7554526577
 21
212.3533019293
 31
0.0
  0
LINE
  5
1B8
330
1F
100
AcDbEntity
  8
OBRYS
100
AcDbLine
 10
222.7554524677
 20
212.3533019293
 30
0.0
 11
222.7554524677
 21
202.7539701629
 31
0.0
  0
LINE
  5
1B9
330
1F
100
AcDbEntity
  8
OBRYS
100
AcDbLine
 10
217.2552576183
 20
228.7725526802
 30
0.0
 11
217.2554527303
 21
228.7725526802
 31
0.0
  0
LINE
  5
1BA
330
1F
100
AcDbEntity
  8
OBRYS
100
AcDbLine
 10
219.2554525925
 20
257.7737343926
 30
0.0
 11
217.2554527303
 21
257.7737343926
 31
0.0
  0
LINE
  5
1BB
330
1F
100
AcDbEntity
  8
OBRYS
100
AcDbLine
 10
232.2554523951
 20
257.7737343926
 30
0.0
 11
230.2554525329
 21
257.7737343926
 31
0.0
  0
LINE
  5
1BC
330
1F
100
AcDbEntity
  8
OBRYS
100
AcDbLine
 10
229.7555739885
 20
194.5471835751
 30
0.0
 11
229.7555739885
 21
201.147185402
 31
0.0
  0
LINE
  5
1BD
330
1F
100
AcDbEntity
  8
OBRYS
100
AcDbLine
 10
219.7555742121
 20
194.5471835751
 30
0.0
 11
219.7555742121
 21
201.147185402
 31
0.0
  0
LINE
  5
1BE
330
1F
100
AcDbEntity
  8
OBRYS
100
AcDbLine
 10
229.7555739885
 20
194.356694581
 30
0.0
 11
229.7555739885
 21
194.5471835751
 31
0.0
  0
LINE
  5
1BF
330
1F
100
AcDbEntity
  8
OBRYS
100
AcDbLine
 10
227.5057691975
 20
194.356694581
 30
0.0
 11
227.5057691975
 21
194.5471835751
 31
0.0
  0
LINE
  5
1C0
330
1F
100
AcDbEntity
  8
OBRYS
100
AcDbLine
 10
222.0057692273
 20
194.5471835751
 30
0.0
 11
222.0057692273
 21
194.356694581
 31
0.0
  0
LINE
  5
1C1
330
1F
100
AcDbEntity
  8
OBRYS
100
AcDbLine
 10
219.7555742121
 20
194.356694581
 30
0.0
 11
219.7555742121
 21
194.5471835751
 31
0.0
  0
LINE
  5
1C2
330
1F
100
AcDbEntity
  8
OBRYS
100
AcDbLine
 10
219.7554526745
 20
195.1345426459
 30
0.0
 11
219.7555742121
 21
195.1345426459
 31
0.0
  0
LINE
  5
1C3
330
1F
100
AcDbEntity
  8
OBRYS
100
AcDbLine
 10
219.7554526745
 20
195.1345426459
 30
0.0
 11
219.7554526745
 21
196.1614598948
 31
0.0
  0
LINE
  5
1C4
330
1F
100
AcDbEntity
  8
OBRYS
100
AcDbLine
 10
219.7554526745
 20
194.8889566082
 30
0.0
 11
219.7554526745
 21
195.1345426459
 31
0.0
  0
LINE
  5
1C5
330
1F
100
AcDbEntity
  8
OBRYS
100
AcDbLine
 10
219.7554526745
 20
199.5539700109
 30
0.0
 11
219.7555742121
 21
199.5539700109
 31
0.0
  0
LINE
  5
1C6
330
1F
100
AcDbEntity
  8
OBRYS
100
AcDbLine
 10
219.7554526745
 20
199.5539700109
 30
0.0
 11
219.7554526745
 21
200.7539698351
 31
0.0
  0
LINE
  5
1C7
330
1F
100
AcDbEntity
  8
OBRYS
100
AcDbLine
 10
219.7554526745
 20
196.1614598948
 30
0.0
 11
219.7554526745
 21
196.168660881
 31
0.0
  0
LINE
  5
1C8
330
1F
100
AcDbEntity
  8
OBRYS
100
AcDbLine
 10
219.7554526745
 20
196.1614598948
 30
0.0
 11
219.7554526745
 21
199.5539700109
 31
0.0
  0
LINE
  5
1C9
330
1F
100
AcDbEntity
  8
OBRYS
100
AcDbLine
 10
213.7554526223
 20
262.2539715338
 30
0.0
 11
214.7554527862
 21
262.2539715338
 31
0.0
  0
LINE
  5
1CA
330
1F
100
AcDbEntity
  8
OBRYS
100
AcDbLine
 10
234.7554523392
 20
262.2539715338
 30
0.0
 11
235.7554525031
 21
262.2539715338
 31
0.0
  0
LINE
  5
1CB
330
1F
100
AcDbEntity
  8
OBRYS
100
AcDbLine
 10
235.7554525031
 20
264.9539706725
 30
0.0
 11
213.7554526223
 21
264.9539706725
 31
0.0
  0
LINE
  5
1CC
330
1F
100
AcDbEntity
  8
OBRYS
100
AcDbLine
 10
235.7554525031
 20
264.9539706725
 30
0.0
 11
235.7554525031
 21
262.2539715338
 31
0.0
  0
LINE
  5
1CD
330
1F
100
AcDbEntity
  8
OBRYS
100
AcDbLine
 10
213.7554526223
 20
264.9539706725
 30
0.0
 11
213.7554526223
 21
262.2539715338
 31
0.0
  0
LINE
  5
1CE
330
1F
100
AcDbEntity
  8
OBRYS
100
AcDbLine
 10
235.7554525031
 20
258.2539708782
 30
0.0
 11
234.7554523392
 21
258.2539708782
 31
0.0
  0
LINE
  5
1CF
330
1F
100
AcDbEntity
  8
OBRYS
100
AcDbLine
 10
214.7554527862
 20
258.2539708782
 30
0.0
 11
213.7554526223
 21
258.2539708782
 31
0.0
  0
LINE
  5
1D0
330
1F
100
AcDbEntity
  8
OBRYS
100
AcDbLine
 10
235.7554525031
 20
258.2539708782
 30
0.0
 11
235.7554525031
 21
262.2539715338
 31
0.0
  0
LINE
  5
1D1
330
1F
100
AcDbEntity
  8
OBRYS
100
AcDbLine
 10
213.7554526223
 20
258.2539708782
 30
0.0
 11
213.7554526223
 21
262.2539715338
 31
0.0
  0
LINE
  5
1D2
330
1F
100
AcDbEntity
  8
OBRYS
100
AcDbLine
 10
219.7555742121
 20
200.7539698351
 30
0.0
 11
219.7554526745
 21
200.7539698351
 31
0.0
  0
LINE
  5
1D3
330
1F
100
AcDbEntity
  8
OBRYS
100
AcDbLine
 10
229.7554524509
 20
202.7539701629
 30
0.0
 11
219.7554526745
 21
202.7539701629
 31
0.0
  0
LINE
  5
1D4
330
1F
100
AcDbEntity
  8
OBRYS
100
AcDbLine
 10
229.7554524509
 20
202.7539701629
 30
0.0
 11
229.7554524509
 21
201.147185402
 31
0.0
  0
LINE
  5
1D5
330
1F
100
AcDbEntity
  8
OBRYS
100
AcDbLine
 10
219.7554526745
 20
200.7539698351
 30
0.0
 11
219.7554526745
 21
202.7539701629
 31
0.0
  0
LINE
  5
1D6
330
1F
100
AcDbEntity
  8
OBRYS
100
AcDbLine
 10
216.7554521827
 20
233.5039707794
 30
0.0
 11
216.7554521827
 21
236.0256023202
 31
0.0
  0
LINE
  5
1D7
330
1F
100
AcDbEntity
  8
OBRYS
100
AcDbLine
 10
216.7554521827
 20
233.5039707794
 30
0.0
 11
217.2554527303
 21
233.5039707794
 31
0.0
  0
LINE
  5
1D8
330
1F
100
AcDbEntity
  8
OBRYS
100
AcDbLine
 10
232.2554523951
 20
233.5039707794
 30
0.0
 11
232.7554529427
 21
233.5039707794
 31
0.0
  0
LINE
  5
1D9
330
1F
100
AcDbEntity
  8
OBRYS
100
AcDbLine
 10
232.7554529427
 20
236.0256023202
 30
0.0
 11
232.7554529427
 21
233.5039707794
 31
0.0
  0
LINE
  5
1DA
330
1F
100
AcDbEntity
  8
OBRYS
100
AcDbLine
 10
232.7554529427
 20
228.4823388289
 30
0.0
 11
232.7554529427
 21
231.5039706845
 31
0.0
  0
LINE
  5
1DB
330
1F
100
AcDbEntity
  8
OBRYS
100
AcDbLine
 10
232.2554523951
 20
231.5039706845
 30
0.0
 11
232.7554529427
 21
231.5039706845
 31
0.0
  0
LINE
  5
1DC
330
1F
100
AcDbEntity
  8
OBRYS
100
AcDbLine
 10
216.7554521827
 20
231.5039706845
 30
0.0
 11
217.2554527303
 21
231.5039706845
 31
0.0
  0
LINE
  5
1DD
330
1F
100
AcDbEntity
  8
OBRYS
100
AcDbLine
 10
216.7554521827
 20
231.5039706845
 30
0.0
 11
216.7554521827
 21
228.4823388289
 31
0.0
  0
LINE
  5
1DE
330
1F
100
AcDbEntity
  8
OBRYS
100
AcDbLine
 10
234.7554523392
 20
236.0256023202
 30
0.0
 11
234.7554523392
 21
228.4823388289
 31
0.0
  0
LINE
  5
1DF
330
1F
100
AcDbEntity
  8
OBRYS
100
AcDbLine
 10
214.7554527862
 20
236.0256023202
 30
0.0
 11
214.7554527862
 21
228.4823388289
 31
0.0
  0
LINE
  5
1E0
330
1F
100
AcDbEntity
  8
OBRYS
100
AcDbLine
 10
229.7554524509
 20
202.7539701629
 30
0.0
 11
229.7554524509
 21
203.7539703268
 31
0.0
  0
LINE
  5
1E1
330
1F
100
AcDbEntity
  8
OBRYS
100
AcDbLine
 10
219.7554526745
 20
203.7539703268
 30
0.0
 11
219.7554526745
 21
202.7539701629
 31
0.0
  0
LINE
  5
1E2
330
1F
100
AcDbEntity
  8
OBRYS
100
AcDbLine
 10
216.7554521827
 20
228.4823388289
 30
0.0
 11
216.7554521827
 21
227.6441985704
 31
0.0
  0
LINE
  5
1E3
330
1F
100
AcDbEntity
  8
OBRYS
100
AcDbLine
 10
214.7554527862
 20
228.4823388289
 30
0.0
 11
214.7554527862
 21
227.6441985704
 31
0.0
  0
LINE
  5
1E4
330
1F
100
AcDbEntity
  8
OBRYS
100
AcDbLine
 10
232.7554529427
 20
227.6441985704
 30
0.0
 11
232.7554529427
 21
228.4823388289
 31
0.0
  0
LINE
  5
1E5
330
1F
100
AcDbEntity
  8
OBRYS
100
AcDbLine
 10
234.7554523392
 20
228.4823388289
 30
0.0
 11
234.7554523392
 21
227.6441985704
 31
0.0
  0
LINE
  5
1E6
330
1F
100
AcDbEntity
  8
OBRYS
100
AcDbLine
 10
216.7554521827
 20
236.0256023202
 30
0.0
 11
216.7554521827
 21
236.8637428116
 31
0.0
  0
LINE
  5
1E7
330
1F
100
AcDbEntity
  8
OBRYS
100
AcDbLine
 10
214.7554527862
 20
236.8637428116
 30
0.0
 11
214.7554527862
 21
236.0256023202
 31
0.0
  0
LINE
  5
1E8
330
1F
100
AcDbEntity
  8
OBRYS
100
AcDbLine
 10
232.7554529427
 20
236.8637428116
 30
0.0
 11
232.7554529427
 21
236.0256023202
 31
0.0
  0
LINE
  5
1E9
330
1F
100
AcDbEntity
  8
OBRYS
100
AcDbLine
 10
234.7554523392
 20
236.8637428116
 30
0.0
 11
234.7554523392
 21
236.0256023202
 31
0.0
  0
LINE
  5
1EA
330
1F
100
AcDbEntity
  8
OBRYS
100
AcDbLine
 10
216.7554521827
 20
262.2539715338
 30
0.0
 11
214.7554527862
 21
262.2539715338
 31
0.0
  0
LINE
  5
1EB
330
1F
100
AcDbEntity
  8
OBRYS
100
AcDbLine
 10
216.7554521827
 20
257.2539707143
 30
0.0
 11
216.7554521827
 21
262.2539715338
 31
0.0
  0
LINE
  5
1EC
330
1F
100
AcDbEntity
  8
OBRYS
100
AcDbLine
 10
214.7554527862
 20
262.2539715338
 30
0.0
 11
214.7554527862
 21
257.2539707143
 31
0.0
  0
LINE
  5
1ED
330
1F
100
AcDbEntity
  8
OBRYS
100
AcDbLine
 10
230.2554525329
 20
262.2539715338
 30
0.0
 11
219.2554525925
 21
262.2539715338
 31
0.0
  0
LINE
  5
1EE
330
1F
100
AcDbEntity
  8
OBRYS
100
AcDbLine
 10
230.2554525329
 20
257.2539707143
 30
0.0
 11
230.2554525329
 21
262.2539715338
 31
0.0
  0
LINE
  5
1EF
330
1F
100
AcDbEntity
  8
OBRYS
100
AcDbLine
 10
219.2554525925
 20
262.2539715338
 30
0.0
 11
219.2554525925
 21
257.2539707143
 31
0.0
  0
LINE
  5
1F0
330
1F
100
AcDbEntity
  8
OBRYS
100
AcDbLine
 10
234.7554523392
 20
262.2539715338
 30
0.0
 11
232.7554529427
 21
262.2539715338
 31
0.0
  0
LINE
  5
1F1
330
1F
100
AcDbEntity
  8
OBRYS
100
AcDbLine
 10
232.7554529427
 20
262.2539715338
 30
0.0
 11
232.7554529427
 21
257.2539707143
 31
0.0
  0
LINE
  5
1F2
330
1F
100
AcDbEntity
  8
OBRYS
100
AcDbLine
 10
234.7554523392
 20
262.2539715338
 30
0.0
 11
234.7554523392
 21
257.2539707143
 31
0.0
  0
LINE
  5
1F3
330
1F
100
AcDbEntity
  8
OBRYS
100
AcDbLine
 10
216.7554521827
 20
236.8637428116
 30
0.0
 11
216.7554521827
 21
257.2539707143
 31
0.0
  0
LINE
  5
1F4
330
1F
100
AcDbEntity
  8
OBRYS
100
AcDbLine
 10
214.7554527862
 20
257.2539707143
 30
0.0
 11
214.7554527862
 21
236.8637428116
 31
0.0
  0
LINE
  5
1F5
330
1F
100
AcDbEntity
  8
OBRYS
100
AcDbLine
 10
230.2554525329
 20
256.7107973117
 30
0.0
 11
230.2554525329
 21
257.2539707143
 31
0.0
  0
LINE
  5
1F6
330
1F
100
AcDbEntity
  8
OBRYS
100
AcDbLine
 10
219.2554525925
 20
257.2539707143
 30
0.0
 11
219.2554525925
 21
256.7107973117
 31
0.0
  0
LINE
  5
1F7
330
1F
100
AcDbEntity
  8
OBRYS
100
AcDbLine
 10
232.7554529427
 20
257.2539707143
 30
0.0
 11
232.7554529427
 21
236.8637428116
 31
0.0
  0
LINE
  5
1F8
330
1F
100
AcDbEntity
  8
OBRYS
100
AcDbLine
 10
234.7554523392
 20
257.2539707143
 30
0.0
 11
234.7554523392
 21
236.8637428116
 31
0.0
  0
LINE
  5
1F9
330
1F
100
AcDbEntity
  8
OBRYS
100
AcDbLine
 10
216.7554521827
 20
221.503970908
 30
0.0
 11
217.2554527303
 21
221.503970908
 31
0.0
  0
LINE
  5
1FA
330
1F
100
AcDbEntity
  8
OBRYS
100
AcDbLine
 10
232.2554523951
 20
221.503970908
 30
0.0
 11
232.7554529427
 21
221.503970908
 31
0.0
  0
LINE
  5
1FB
330
1F
100
AcDbEntity
  8
OBRYS
100
AcDbLine
 10
229.7554524509
 20
209.253970297
 30
0.0
 11
230.2554525329
 21
209.7539713103
 31
0.0
  0
LINE
  5
1FC
330
1F
100
AcDbEntity
  8
OBRYS
100
AcDbLine
 10
232.2554523951
 20
211.7539697755
 30
0.0
 11
234.7554523392
 21
214.2539711166
 31
0.0
  0
LINE
  5
1FD
330
1F
100
AcDbEntity
  8
OBRYS
100
AcDbLine
 10
214.7554527862
 20
214.2539711166
 30
0.0
 11
217.2554527303
 21
211.7539697755
 31
0.0
  0
LINE
  5
1FE
330
1F
100
AcDbEntity
  8
OBRYS
100
AcDbLine
 10
219.2554525925
 20
209.7539713103
 30
0.0
 11
219.7554526745
 21
209.253970297
 31
0.0
  0
LINE
  5
1FF
330
1F
100
AcDbEntity
  8
OBRYS
100
AcDbLine
 10
232.7554529427
 20
221.503970908
 30
0.0
 11
232.7554529427
 21
227.6441985704
 31
0.0
  0
LINE
  5
200
330
1F
100
AcDbEntity
  8
OBRYS
100
AcDbLine
 10
216.7554521827
 20
227.6441985704
 30
0.0
 11
216.7554521827
 21
221.503970908
 31
0.0
  0
LINE
  5
201
330
1F
100
AcDbEntity
  8
OBRYS
100
AcDbLine
 10
234.7554523392
 20
227.6441985704
 30
0.0
 11
234.7554523392
 21
214.2539711166
 31
0.0
  0
LINE
  5
202
330
1F
100
AcDbEntity
  8
OBRYS
100
AcDbLine
 10
214.7554527862
 20
227.6441985704
 30
0.0
 11
214.7554527862
 21
214.2539711166
 31
0.0
  0
LINE
  5
203
330
1F
100
AcDbEntity
  8
OBRYS
100
AcDbLine
 10
229.7554524509
 20
203.7539703268
 30
0.0
 11
229.7554524509
 21
209.253970297
 31
0.0
  0
LINE
  5
204
330
1F
100
AcDbEntity
  8
OBRYS
100
AcDbLine
 10
219.7554526745
 20
209.253970297
 30
0.0
 11
219.7554526745
 21
203.7539703268
 31
0.0
  0
LINE
  5
205
330
1F
100
AcDbEntity
  8
OBRYS
100
AcDbLine
 10
219.2554525925
 20
259.2539710421
 30
0.0
 11
216.7554521827
 21
259.2539710421
 31
0.0
  0
LINE
  5
206
330
1F
100
AcDbEntity
  8
OBRYS
100
AcDbLine
 10
232.7554529427
 20
259.2539710421
 30
0.0
 11
230.2554525329
 21
259.2539710421
 31
0.0
  0
LINE
  5
207
330
1F
100
AcDbEntity
  8
OBRYS
100
AcDbLine
 10
230.2554525329
 20
262.2539715338
 30
0.0
 11
232.7554529427
 21
262.2539715338
 31
0.0
  0
LINE
  5
208
330
1F
100
AcDbEntity
  8
OBRYS
100
AcDbLine
 10
216.7554521827
 20
262.2539715338
 30
0.0
 11
219.2554525925
 21
262.2539715338
 31
0.0
  0
LWPOLYLINE
  5
209
330
1F
100
AcDbEntity
  8
OBRYS
100
AcDbPolyline
 90
        8
 70
   128
 43
0.0
 10
222.3986134293
 20
191.6674298662
 10
222.3993640753
 20
191.6617338974
 10
222.400927533
 20
191.6576621551
 10
222.4033038026
 20
191.6552183646
 10
222.4064924183
 20
191.6544062514
 10
222.4104924487
 20
191.6552183646
 10
222.4153031955
 20
191.6576621551
 10
222.4208478244
 20
191.6616705674
  0
LINE
  5
20A
330
1F
100
AcDbEntity
  8
OBRYS
100
AcDbLine
 10
224.2666165937
 20
191.4141809065
 30
0.0
 11
224.2146895976
 21
191.4141809065
 31
0.0
  0
ARC
  5
20B
330
1F
100
AcDbEntity
  8
OBRYS
100
AcDbCircle
 10
222.4844307375
 20
191.8213034
 30
0.0
 40
1.828096045274825
100
AcDbArc
 50
347.1321563878
 51
355.1716170694
  0
ARC
  5
20C
330
1F
100
AcDbEntity
  8
OBRYS
100
AcDbCircle
 10
224.821186112
 20
201.8230842648
 30
0.0
 40
10.16867813533637
100
AcDbArc
 50
269.629619394
 51
272.1658693118
  0
LINE
  5
20D
330
1F
100
AcDbEntity
  8
OBRYS
100
AcDbLine
 10
225.6999660992
 20
191.4141809065
 30
0.0
 11
225.6712264741
 21
191.4141809065
 31
0.0
  0
ARC
  5
20E
330
1F
100
AcDbEntity
  8
OBRYS
100
AcDbCircle
 10
224.7698893024
 20
200.6658302831
 30
0.0
 40
9.29828258532847
100
AcDbArc
 50
275.7407096813
 51
284.5910235996
  0
ARC
  5
20F
330
1F
100
AcDbEntity
  8
OBRYS
100
AcDbCircle
 10
227.1091955742
 20
191.6863238985
 30
0.0
 40
0.0318524205156882
100
AcDbArc
 50
216.3825800059
 51
264.4911350584
  0
ARC
  5
210
330
1F
100
AcDbEntity
  8
OBRYS
100
AcDbCircle
 10
224.7411497951
 20
200.6658290875
 30
0.0
 40
9.298281383929236
100
AcDbArc
 50
275.7407096957
 51
284.5910244057
  0
LINE
  5
211
330
1F
100
AcDbEntity
  8
OBRYS
100
AcDbLine
 10
225.2442885317
 20
191.4141809065
 30
0.0
 11
225.6712264741
 21
191.4141809065
 31
0.0
  0
ARC
  5
212
330
1F
100
AcDbEntity
  8
OBRYS
100
AcDbCircle
 10
227.0264743879
 20
191.8213034
 30
0.0
 40
1.828096045274797
100
AcDbArc
 50
184.8283829306
 51
192.8678436122
  0
ARC
  5
213
330
1F
100
AcDbEntity
  8
OBRYS
100
AcDbCircle
 10
224.6900662528
 20
201.8347339363
 30
0.0
 40
10.1803286076454
100
AcDbArc
 50
267.1014272729
 51
272.8985727271
  0
ARC
  5
214
330
1F
100
AcDbEntity
  8
OBRYS
100
AcDbCircle
 10
225.9968528621
 20
191.8213000925
 30
0.0
 40
1.828073284367803
100
AcDbArc
 50
184.828339158
 51
192.8679002422
  0
LINE
  5
215
330
1F
100
AcDbEntity
  8
OBRYS
100
AcDbLine
 10
223.8109390262
 20
191.4141809065
 30
0.0
 11
224.2146895976
 21
191.4141809065
 31
0.0
  0
ARC
  5
216
330
1F
100
AcDbEntity
  8
OBRYS
100
AcDbCircle
 10
224.741015823
 20
200.6658302831
 30
0.0
 40
9.298282585328458
100
AcDbArc
 50
255.4089764004
 51
264.2592903187
  0
LINE
  5
217
330
1F
100
AcDbEntity
  8
OBRYS
100
AcDbLine
 10
224.2146895976
 20
191.4141809065
 30
0.0
 11
224.215256482
 21
191.6674298662
 31
0.0
  0
LINE
  5
218
330
1F
100
AcDbEntity
  8
OBRYS
100
AcDbLine
 10
226.7554526577
 20
212.3533019293
 30
0.0
 11
222.7554524677
 21
212.3533019293
 31
0.0
  0
LINE
  5
219
330
1F
100
AcDbEntity
  8
OBRYS
100
AcDbLine
 10
224.2660497093
 20
191.6674298662
 30
0.0
 11
224.2666165937
 21
191.4141809065
 31
0.0
  0
ELLIPSE
  5
21A
330
1F
100
AcDbEntity
  8
OBRYS
100
AcDbEllipse
 10
219.7552575614
 20
194.392458546
 30
0.0
 11
0.0
 21
2.51832322303585
 31
0.0
210
0.0
220
0.0
230
1.0
 40
0.9927240384
 41
2.900157904085373
 42
3.141592653589793
  0
LINE
  5
21B
330
1F
100
AcDbEntity
  8
OBRYS
100
AcDbLine
 10
217.2552576183
 20
194.3924573678
 30
0.0
 11
217.2552576183
 21
195.3882386405
 31
0.0
  0
ELLIPSE
  5
21C
330
1F
100
AcDbEntity
  8
OBRYS
100
AcDbEllipse
 10
229.7552575614
 20
194.392458546
 30
0.0
 11
0.0
 21
2.51832322303585
 31
0.0
210
0.0
220
0.0
230
1.0
 40
0.9927240384
 41
3.141592653589793
 42
3.381937267751189
  0
ARC
  5
21D
330
1F
100
AcDbEntity
  8
OBRYS
100
AcDbCircle
 10
229.7556183134
 20
195.3885957128
 30
0.0
 40
0.4996392349752228
100
AcDbArc
 50
269.9586054898
 51
359.9590529774
  0
LINE
  5
21E
330
1F
100
AcDbEntity
  8
OBRYS
100
AcDbLine
 10
217.2554527303
 20
197.8618500251
 30
0.0
 11
217.2552576183
 21
197.8618500251
 31
0.0
  0
LINE
  5
21F
330
1F
100
AcDbEntity
  8
OBRYS
100
AcDbLine
 10
217.2552576183
 20
195.3882386405
 30
0.0
 11
217.2552576183
 21
197.8618500251
 31
0.0
  0
LINE
  5
220
330
1F
100
AcDbEntity
  8
OBRYS
100
AcDbLine
 10
230.2552574208
 20
197.8618500251
 30
0.0
 11
230.2554525329
 21
197.8618500251
 31
0.0
  0
LINE
  5
221
330
1F
100
AcDbEntity
  8
OBRYS
100
AcDbLine
 10
230.2552574208
 20
195.3882386405
 30
0.0
 11
230.2552574208
 21
197.8618500251
 31
0.0
  0
LINE
  5
222
330
1F
100
AcDbEntity
  8
OBRYS
100
AcDbLine
 10
219.7552575624
 20
191.874135049
 30
0.0
 11
219.7554526745
 21
191.874135049
 31
0.0
  0
LINE
  5
223
330
1F
100
AcDbEntity
  8
OBRYS
100
AcDbLine
 10
217.2554527303
 20
257.4875091631
 30
0.0
 11
217.2552576183
 21
257.4875091631
 31
0.0
  0
LINE
  5
224
330
1F
100
AcDbEntity
  8
OBRYS
100
AcDbLine
 10
217.2552576183
 20
257.4875091631
 30
0.0
 11
217.2552576183
 21
257.7539698649
 31
0.0
  0
LINE
  5
225
330
1F
100
AcDbEntity
  8
OBRYS
100
AcDbLine
 10
217.2554527303
 20
255.7627761233
 30
0.0
 11
217.2552576183
 21
255.7627761233
 31
0.0
  0
LINE
  5
226
330
1F
100
AcDbEntity
  8
OBRYS
100
AcDbLine
 10
217.2552576183
 20
255.7627761233
 30
0.0
 11
217.2552576183
 21
257.4875091631
 31
0.0
  0
LINE
  5
227
330
1F
100
AcDbEntity
  8
OBRYS
100
AcDbLine
 10
217.2554527303
 20
199.4097342211
 30
0.0
 11
217.2552576183
 21
199.4097342211
 31
0.0
  0
LINE
  5
228
330
1F
100
AcDbEntity
  8
OBRYS
100
AcDbLine
 10
217.2552576183
 20
197.8618500251
 30
0.0
 11
217.2552576183
 21
199.4097342211
 31
0.0
  0
LINE
  5
229
330
1F
100
AcDbEntity
  8
OBRYS
100
AcDbLine
 10
230.2552574208
 20
199.4097342211
 30
0.0
 11
230.2554525329
 21
199.4097342211
 31
0.0
  0
LINE
  5
22A
330
1F
100
AcDbEntity
  8
OBRYS
100
AcDbLine
 10
230.2552574208
 20
197.8618500251
 30
0.0
 11
230.2552574208
 21
199.4097342211
 31
0.0
  0
LINE
  5
22B
330
1F
100
AcDbEntity
  8
OBRYS
100
AcDbLine
 10
217.2554527303
 20
249.5499344039
 30
0.0
 11
217.2552576183
 21
249.5499344039
 31
0.0
  0
LINE
  5
22C
330
1F
100
AcDbEntity
  8
OBRYS
100
AcDbLine
 10
217.2552576183
 20
249.5499344039
 30
0.0
 11
217.2552576183
 21
255.7627761233
 31
0.0
  0
LINE
  5
22D
330
1F
100
AcDbEntity
  8
OBRYS
100
AcDbLine
 10
217.2554527303
 20
240.8814623449
 30
0.0
 11
217.2552576183
 21
240.8814623449
 31
0.0
  0
LINE
  5
22E
330
1F
100
AcDbEntity
  8
OBRYS
100
AcDbLine
 10
217.2554527303
 20
229.6037616869
 30
0.0
 11
217.2552576183
 21
229.6037616869
 31
0.0
  0
LINE
  5
22F
330
1F
100
AcDbEntity
  8
OBRYS
100
AcDbLine
 10
217.2552576183
 20
229.6037616869
 30
0.0
 11
217.2552576183
 21
231.5039706845
 31
0.0
  0
LINE
  5
230
330
1F
100
AcDbEntity
  8
OBRYS
100
AcDbLine
 10
217.2552576183
 20
233.5039707794
 30
0.0
 11
217.2552576183
 21
240.8814623449
 31
0.0
  0
LINE
  5
231
330
1F
100
AcDbEntity
  8
OBRYS
100
AcDbLine
 10
217.2552576183
 20
240.8814623449
 30
0.0
 11
217.2552576183
 21
249.5499344039
 31
0.0
  0
LINE
  5
232
330
1F
100
AcDbEntity
  8
OBRYS
100
AcDbLine
 10
217.2552576183
 20
228.7725526802
 30
0.0
 11
217.2552576183
 21
229.6037616869
 31
0.0
  0
LINE
  5
233
330
1F
100
AcDbEntity
  8
OBRYS
100
AcDbLine
 10
217.2552576183
 20
221.503970908
 30
0.0
 11
217.2552576183
 21
228.7725526802
 31
0.0
  0
LINE
  5
234
330
1F
100
AcDbEntity
  8
OBRYS
100
AcDbLine
 10
217.2552576183
 20
199.4097342211
 30
0.0
 11
217.2552576183
 21
201.8437811602
 31
0.0
  0
LINE
  5
235
330
1F
100
AcDbEntity
  8
OBRYS
100
AcDbLine
 10
230.2552574208
 20
199.4097342211
 30
0.0
 11
230.2552574208
 21
201.8437811602
 31
0.0
  0
LINE
  5
236
330
1F
100
AcDbEntity
  8
OBRYS
100
AcDbLine
 10
217.2552576183
 20
201.8437811602
 30
0.0
 11
217.2552576183
 21
211.7541653532
 31
0.0
  0
LINE
  5
237
330
1F
100
AcDbEntity
  8
OBRYS
100
AcDbLine
 10
230.2552574208
 20
201.8437811602
 30
0.0
 11
230.2552574208
 21
209.7537757326
 31
0.0
  0
LINE
  5
238
330
1F
100
AcDbEntity
  8
OBRYS
100
AcDbLine
 10
229.7554524509
 20
191.874135049
 30
0.0
 11
219.7554526745
 21
191.874135049
 31
0.0
  0
LINE
  5
239
330
1F
100
AcDbEntity
  8
OBRYS
100
AcDbLine
 10
229.7554524509
 20
193.871263178
 30
0.0
 11
219.7554526745
 21
193.871263178
 31
0.0
  0
ELLIPSE
  5
23A
330
1F
100
AcDbEntity
  8
OBRYS
100
AcDbEllipse
 10
219.7554525627
 20
194.392458546
 30
0.0
 11
0.0
 21
2.51832322303585
 31
0.0
210
0.0
220
0.0
230
1.0
 40
0.9927240384
 41
1.570796326794897
 42
3.141592653589793
  0
LINE
  5
23B
330
1F
100
AcDbEntity
  8
OBRYS
100
AcDbLine
 10
219.2554525925
 20
194.3924573678
 30
0.0
 11
217.2554527303
 21
194.3924573678
 31
0.0
  0
ELLIPSE
  5
23C
330
1F
100
AcDbEntity
  8
OBRYS
100
AcDbEllipse
 10
219.7554525627
 20
194.392458546
 30
0.0
 11
0.0
 21
0.5211942421942126
 31
0.0
210
0.0
220
0.0
230
1.0
 40
0.9593352334
 41
1.570796326794897
 42
3.141592653589793
  0
ELLIPSE
  5
23D
330
1F
100
AcDbEntity
  8
OBRYS
100
AcDbEllipse
 10
229.7554525627
 20
194.392458546
 30
0.0
 11
0.0
 21
2.51832322303585
 31
0.0
210
0.0
220
0.0
230
1.0
 40
0.9927240384
 41
3.141592653589793
 42
4.712388980384715
  0
ELLIPSE
  5
23E
330
1F
100
AcDbEntity
  8
OBRYS
100
AcDbEllipse
 10
229.7554525627
 20
194.392458546
 30
0.0
 11
0.0
 21
0.5211942421942126
 31
0.0
210
0.0
220
0.0
230
1.0
 40
0.9593352334
 41
3.141592653589793
 42
4.712388980384757
  0
LINE
  5
23F
330
1F
100
AcDbEntity
  8
OBRYS
100
AcDbLine
 10
230.2554525329
 20
194.3924573678
 30
0.0
 11
232.2554523951
 21
194.3924573678
 31
0.0
  0
LINE
  5
240
330
1F
100
AcDbEntity
  8
OBRYS
100
AcDbLine
 10
219.7555742121
 20
194.8889566082
 30
0.0
 11
219.7554526745
 21
194.8889566082
 31
0.0
  0
ARC
  5
241
330
1F
100
AcDbEntity
  8
OBRYS
100
AcDbCircle
 10
219.7550926254
 20
195.3885966396
 30
0.0
 40
0.4996401611502417
100
AcDbArc
 50
180.0410532316
 51
270.0412883012
  0
ARC
  5
242
330
1F
100
AcDbEntity
  8
OBRYS
100
AcDbCircle
 10
229.7558125
 20
195.3885966396
 30
0.0
 40
0.4996401611502417
100
AcDbArc
 50
269.9587116988
 51
359.9589467684
  0
LINE
  5
243
330
1F
100
AcDbEntity
  8
OBRYS
100
AcDbLine
 10
219.2554525925
 20
247.2772465516
 30
0.0
 11
217.2554527303
 21
247.2772465516
 31
0.0
  0
LINE
  5
244
330
1F
100
AcDbEntity
  8
OBRYS
100
AcDbLine
 10
217.2554527303
 20
247.2772465516
 30
0.0
 11
217.2554527303
 21
194.3924573678
 31
0.0
  0
LINE
  5
245
330
1F
100
AcDbEntity
  8
OBRYS
100
AcDbLine
 10
219.2554525925
 20
247.2772465516
 30
0.0
 11
219.2554525925
 21
194.3924573678
 31
0.0
  0
LINE
  5
246
330
1F
100
AcDbEntity
  8
OBRYS
100
AcDbLine
 10
230.2554525329
 20
247.2772465516
 30
0.0
 11
232.2554523951
 21
247.2772465516
 31
0.0
  0
LINE
  5
247
330
1F
100
AcDbEntity
  8
OBRYS
100
AcDbLine
 10
232.2554523951
 20
247.2772465516
 30
0.0
 11
232.2554523951
 21
194.3924573678
 31
0.0
  0
LINE
  5
248
330
1F
100
AcDbEntity
  8
OBRYS
100
AcDbLine
 10
230.2554525329
 20
247.2772465516
 30
0.0
 11
230.2554525329
 21
194.3924573678
 31
0.0
  0
LINE
  5
249
330
1F
100
AcDbEntity
  8
OBRYS
100
AcDbLine
 10
217.2554527303
 20
257.7737343926
 30
0.0
 11
217.2554527303
 21
247.2772465516
 31
0.0
  0
LINE
  5
24A
330
1F
100
AcDbEntity
  8
OBRYS
100
AcDbLine
 10
219.2554525925
 20
256.7107973117
 30
0.0
 11
219.2554525925
 21
247.2772465516
 31
0.0
  0
LINE
  5
24B
330
1F
100
AcDbEntity
  8
OBRYS
100
AcDbLine
 10
232.2554523951
 20
257.7737343926
 30
0.0
 11
232.2554523951
 21
247.2772465516
 31
0.0
  0
LINE
  5
24C
330
1F
100
AcDbEntity
  8
OBRYS
100
AcDbLine
 10
230.2554525329
 20
256.7107973117
 30
0.0
 11
230.2554525329
 21
247.2772465516
 31
0.0
  0
LINE
  5
24D
330
1F
100
AcDbEntity
  8
0
  6
SLD-Plná
 62
     7
100
AcDbLine
 10
219.7554526745
 20
196.1614598948
 30
0.0
 11
219.7555742121
 21
196.1614598948
 31
0.0
  0
LINE
  5
24E
330
1F
100
AcDbEntity
  8
0
  6
SLD-Plná
 62
     7
100
AcDbLine
 10
216.7554521827
 20
228.4823388289
 30
0.0
 11
214.7554527862
 21
228.4823388289
 31
0.0
  0
LINE
  5
24F
330
1F
100
AcDbEntity
  8
0
  6
SLD-Plná
 62
     7
100
AcDbLine
 10
216.7554521827
 20
236.0256023202
 30
0.0
 11
214.7554527862
 21
236.0256023202
 31
0.0
  0
LINE
  5
250
330
1F
100
AcDbEntity
  8
0
  6
SLD-Plná
 62
     7
100
AcDbLine
 10
230.2554525329
 20
236.0256023202
 30
0.0
 11
219.2554525925
 21
236.0256023202
 31
0.0
  0
LINE
  5
251
330
1F
100
AcDbEntity
  8
0
  6
SLD-Plná
 62
     7
100
AcDbLine
 10
234.7554523392
 20
236.0256023202
 30
0.0
 11
232.7554529427
 21
236.0256023202
 31
0.0
  0
LINE
  5
252
330
1F
100
AcDbEntity
  8
0
  6
SLD-Plná
 62
     7
100
AcDbLine
 10
234.7554523392
 20
228.4823388289
 30
0.0
 11
232.7554529427
 21
228.4823388289
 31
0.0
  0
LINE
  5
253
330
1F
100
AcDbEntity
  8
0
  6
SLD-Plná
 62
     7
100
AcDbLine
 10
230.2554525329
 20
228.4823388289
 30
0.0
 11
219.2554525925
 21
228.4823388289
 31
0.0
  0
LINE
  5
254
330
1F
100
AcDbEntity
  8
0
  6
SLD-Plná
 62
     7
100
AcDbLine
 10
229.7554524509
 20
203.7539703268
 30
0.0
 11
226.7554526577
 21
203.7539703268
 31
0.0
  0
LINE
  5
255
330
1F
100
AcDbEntity
  8
0
  6
SLD-Plná
 62
     7
100
AcDbLine
 10
222.7554524677
 20
203.7539703268
 30
0.0
 11
219.7554526745
 21
203.7539703268
 31
0.0
  0
LINE
  5
256
330
1F
100
AcDbEntity
  8
0
  6
SLD-Plná
 62
     7
100
AcDbLine
 10
216.7554521827
 20
227.6441985704
 30
0.0
 11
214.7554527862
 21
227.6441985704
 31
0.0
  0
LINE
  5
257
330
1F
100
AcDbEntity
  8
0
  6
SLD-Plná
 62
     7
100
AcDbLine
 10
230.2554525329
 20
227.6441985704
 30
0.0
 11
219.2554525925
 21
227.6441985704
 31
0.0
  0
LINE
  5
258
330
1F
100
AcDbEntity
  8
0
  6
SLD-Plná
 62
     7
100
AcDbLine
 10
234.7554523392
 20
227.6441985704
 30
0.0
 11
232.7554529427
 21
227.6441985704
 31
0.0
  0
LINE
  5
259
330
1F
100
AcDbEntity
  8
0
  6
SLD-Plná
 62
     7
100
AcDbLine
 10
216.7554521827
 20
236.8637428116
 30
0.0
 11
214.7554527862
 21
236.8637428116
 31
0.0
  0
LINE
  5
25A
330
1F
100
AcDbEntity
  8
0
  6
SLD-Plná
 62
     7
100
AcDbLine
 10
230.2554525329
 20
236.8637428116
 30
0.0
 11
219.2554525925
 21
236.8637428116
 31
0.0
  0
LINE
  5
25B
330
1F
100
AcDbEntity
  8
0
  6
SLD-Plná
 62
     7
100
AcDbLine
 10
234.7554523392
 20
236.8637428116
 30
0.0
 11
232.7554529427
 21
236.8637428116
 31
0.0
  0
LINE
  5
25C
330
1F
100
AcDbEntity
  8
0
  6
SLD-Plná
 62
     7
100
AcDbLine
 10
216.7554521827
 20
257.2539707143
 30
0.0
 11
214.7554527862
 21
257.2539707143
 31
0.0
  0
LINE
  5
25D
330
1F
100
AcDbEntity
  8
0
  6
SLD-Plná
 62
     7
100
AcDbLine
 10
230.2554525329
 20
257.2539707143
 30
0.0
 11
219.2554525925
 21
257.2539707143
 31
0.0
  0
LINE
  5
25E
330
1F
100
AcDbEntity
  8
0
  6
SLD-Plná
 62
     7
100
AcDbLine
 10
234.7554523392
 20
257.2539707143
 30
0.0
 11
232.7554529427
 21
257.2539707143
 31
0.0
  0
LINE
  5
25F
330
1F
100
AcDbEntity
  8
0
  6
SLD-Plná
 62
     7
100
AcDbLine
 10
217.2554527303
 20
195.3882386405
 30
0.0
 11
217.2552576183
 21
195.3882386405
 31
0.0
  0
LINE
  5
260
330
1F
100
AcDbEntity
  8
0
  6
SLD-Plná
 62
     7
100
AcDbLine
 10
230.2552574208
 20
195.3882386405
 30
0.0
 11
230.2554525329
 21
195.3882386405
 31
0.0
  0
LINE
  5
261
330
1F
100
AcDbEntity
  8
0
  6
SLD-Plná
 62
     7
100
AcDbLine
 10
217.2554527303
 20
201.8437811602
 30
0.0
 11
217.2552576183
 21
201.8437811602
 31
0.0
  0
LINE
  5
262
330
1F
100
AcDbEntity
  8
0
  6
SLD-Plná
 62
     7
100
AcDbLine
 10
230.2552574208
 20
201.8437811602
 30
0.0
 11
230.2554525329
 21
201.8437811602
 31
0.0
  0
LINE
  5
263
330
1F
100
AcDbEntity
  8
0
  6
SLD-Plná
 62
     7
100
AcDbLine
 10
219.7554526745
 20
193.871263178
 30
0.0
 11
219.7554526745
 21
191.874135049
 31
0.0
  0
LINE
  5
264
330
1F
100
AcDbEntity
  8
0
  6
SLD-Plná
 62
     7
100
AcDbLine
 10
229.7554524509
 20
193.871263178
 30
0.0
 11
229.7554524509
 21
191.874135049
 31
0.0
  0
LINE
  5
265
330
1F
100
AcDbEntity
  8
0
  6
SLD-Plná
 62
     7
100
AcDbLine
 10
229.7554524509
 20
194.356694581
 30
0.0
 11
229.7554524509
 21
193.871263178
 31
0.0
  0
LINE
  5
266
330
1F
100
AcDbEntity
  8
0
  6
SLD-Plná
 62
     7
100
AcDbLine
 10
219.7554526745
 20
193.871263178
 30
0.0
 11
219.7554526745
 21
194.8889566082
 31
0.0
  0
DIMENSION
  5
267
330
1F
100
AcDbEntity
  8
KOTY
100
AcDbDimension
  2
_D_5
 10
213.7554525627
 20
274.9539706845
 30
0.0
 11
224.7554525627
 21
274.9539706845
 31
0.0
 70
   160
  1
<>
 71
     2
 42
-1.0
  3
SLDDIMSTYLE0
100
AcDbAlignedDimension
 13
235.7554525627
 23
264.9539706845
 33
0.0
 14
213.7554525627
 24
264.9539706845
 34
0.0
100
AcDbRotatedDimension
  0
DIMENSION
  5
271
330
1F
100
AcDbEntity
  8
KOTY
100
AcDbDimension
  2
_D_6
 10
234.7554525627
 20
173.0143271813
 30
0.0
 11
224.7554525627
 21
173.0143271813
 31
0.0
 70
   160
  1
<>
 71
     2
 42
-1.0
  3
SLDDIMSTYLE0
100
AcDbAlignedDimension
 13
214.7554525627
 23
214.2539706845
 33
0.0
 14
234.7554525627
 24
214.2539706845
 34
0.0
100
AcDbRotatedDimension
  0
DIMENSION
  5
27B
330
1F
100
AcDbEntity
  8
KOTY
100
AcDbDimension
  2
_D_7
 10
232.2554525627
 20
177.6395443557
 30
0.0
 11
224.7554525627
 21
177.6395443557
 31
0.0
 70
   160
  1
<>
 71
     2
 42
-1.0
  3
SLDDIMSTYLE1
100
AcDbAlignedDimension
 13
217.2554525627
 23
194.392458546
 33
0.0
 14
232.2554525627
 24
194.392458546
 34
0.0
100
AcDbRotatedDimension
  0
LINE
  5
286
330
1F
100
AcDbEntity
  8
OBRYS
100
AcDbLine
 10
51.0972640831
 20
117.9861924183
 30
0.0
 11
51.0972640831
 21
107.9861926418
 31
0.0
  0
LINE
  5
287
330
1F
100
AcDbEntity
  8
OBRYS
100
AcDbLine
 10
144.6972615439
 20
107.9863141794
 30
0.0
 11
144.6972615439
 21
117.9863139559
 31
0.0
  0
LINE
  5
288
330
1F
100
AcDbEntity
  8
OBRYS
100
AcDbLine
 10
131.8972646613
 20
102.9863142911
 30
0.0
 11
131.8972646613
 21
105.4865088817
 31
0.0
  0
LINE
  5
289
330
1F
100
AcDbEntity
  8
OBRYS
100
AcDbLine
 10
131.8972646613
 20
107.4865092095
 30
0.0
 11
131.8972646613
 21
118.4865091499
 31
0.0
  0
LINE
  5
28A
330
1F
100
AcDbEntity
  8
OBRYS
100
AcDbLine
 10
131.8972646613
 20
120.4865090121
 30
0.0
 11
131.8972646613
 21
122.9863138441
 31
0.0
  0
LINE
  5
28B
330
1F
100
AcDbEntity
  8
OBRYS
100
AcDbLine
 10
63.8972609658
 20
122.9863138441
 30
0.0
 11
63.8972609658
 21
120.4863139
 31
0.0
  0
LINE
  5
28C
330
1F
100
AcDbEntity
  8
OBRYS
100
AcDbLine
 10
63.8972609658
 20
118.4863140378
 30
0.0
 11
63.8972609658
 21
107.4863140974
 31
0.0
  0
LINE
  5
28D
330
1F
100
AcDbEntity
  8
OBRYS
100
AcDbLine
 10
63.8972609658
 20
105.4863142352
 30
0.0
 11
63.8972609658
 21
102.9863142911
 31
0.0
  0
LINE
  5
28E
330
1F
100
AcDbEntity
  8
OBRYS
100
AcDbLine
 10
134.8712495882
 20
105.4865088817
 30
0.0
 11
134.8712495882
 21
107.4865092095
 31
0.0
  0
LINE
  5
28F
330
1F
100
AcDbEntity
  8
OBRYS
100
AcDbLine
 10
134.8712495882
 20
118.4865091499
 30
0.0
 11
134.8712495882
 21
120.4865090121
 31
0.0
  0
ARC
  5
290
330
1F
100
AcDbEntity
  8
OBRYS
100
AcDbCircle
 10
154.1731128079
 20
120.2267950707
 30
0.0
 40
13.34971820870775
100
AcDbArc
 50
183.5092119096
 51
189.0936433052
  0
ARC
  5
291
330
1F
100
AcDbEntity
  8
OBRYS
100
AcDbCircle
 10
154.1730876778
 20
105.7462253037
 30
0.0
 40
13.34969300237844
100
AcDbArc
 50
170.9063501614
 51
176.4907901208
  0
LINE
  5
292
330
1F
100
AcDbEntity
  8
OBRYS
100
AcDbLine
 10
60.9232760388
 20
120.4863139
 30
0.0
 11
60.9232760388
 21
118.4863140378
 31
0.0
  0
LINE
  5
293
330
1F
100
AcDbEntity
  8
OBRYS
100
AcDbLine
 10
60.9232760388
 20
107.4863140974
 30
0.0
 11
60.9232760388
 21
105.4863142352
 31
0.0
  0
ARC
  5
294
330
1F
100
AcDbEntity
  8
OBRYS
100
AcDbCircle
 10
41.6214128191
 20
120.2265999587
 30
0.0
 40
13.34971820870774
100
AcDbArc
 50
350.9063566948
 51
356.4907880904
  0
ARC
  5
295
330
1F
100
AcDbEntity
  8
OBRYS
100
AcDbCircle
 10
41.6214128191
 20
105.7460281766
 30
0.0
 40
13.34971820870774
100
AcDbArc
 50
3.5092119096
 51
9.0936433052
  0
LINE
  5
296
330
1F
100
AcDbEntity
  8
OBRYS
100
AcDbLine
 10
51.0972640831
 20
107.9861926418
 30
0.0
 11
55.7758896966
 21
107.9861926418
 31
0.0
  0
LINE
  5
297
330
1F
100
AcDbEntity
  8
OBRYS
100
AcDbLine
 10
51.0972640831
 20
117.9861924183
 30
0.0
 11
55.7758896966
 21
117.9861924183
 31
0.0
  0
LINE
  5
298
330
1F
100
AcDbEntity
  8
OBRYS
100
AcDbLine
 10
55.7758896966
 20
107.9861926418
 30
0.0
 11
56.1936549265
 21
107.9861926418
 31
0.0
  0
LINE
  5
299
330
1F
100
AcDbEntity
  8
OBRYS
100
AcDbLine
 10
55.7758896966
 20
117.9861924183
 30
0.0
 11
56.1936549265
 21
117.9861924183
 31
0.0
  0
LINE
  5
29A
330
1F
100
AcDbEntity
  8
OBRYS
100
AcDbLine
 10
56.1936549265
 20
107.9861926418
 30
0.0
 11
63.8972609658
 21
107.9861926418
 31
0.0
  0
LINE
  5
29B
330
1F
100
AcDbEntity
  8
OBRYS
100
AcDbLine
 10
56.1936549265
 20
117.9861924183
 30
0.0
 11
57.3972626943
 21
117.9861924183
 31
0.0
  0
LINE
  5
29C
330
1F
100
AcDbEntity
  8
OBRYS
100
AcDbLine
 10
144.6972615439
 20
107.9863141794
 30
0.0
 11
140.0186359305
 21
107.9863141794
 31
0.0
  0
LINE
  5
29D
330
1F
100
AcDbEntity
  8
OBRYS
100
AcDbLine
 10
144.6972615439
 20
117.9863139559
 30
0.0
 11
140.0186359305
 21
117.9863139559
 31
0.0
  0
LINE
  5
29E
330
1F
100
AcDbEntity
  8
OBRYS
100
AcDbLine
 10
140.0186359305
 20
107.9863141794
 30
0.0
 11
139.6008707006
 21
107.9863141794
 31
0.0
  0
LINE
  5
29F
330
1F
100
AcDbEntity
  8
OBRYS
100
AcDbLine
 10
140.0186359305
 20
117.9863139559
 30
0.0
 11
139.6008707006
 21
117.9863139559
 31
0.0
  0
LINE
  5
2A0
330
1F
100
AcDbEntity
  8
OBRYS
100
AcDbLine
 10
139.6008707006
 20
117.9863139559
 30
0.0
 11
138.3972629327
 21
117.9863139559
 31
0.0
  0
LINE
  5
2A1
330
1F
100
AcDbEntity
  8
OBRYS
100
AcDbLine
 10
139.6008707006
 20
107.9863141794
 30
0.0
 11
138.3972629327
 21
107.9863141794
 31
0.0
  0
LINE
  5
2A2
330
1F
100
AcDbEntity
  8
OBRYS
100
AcDbLine
 10
83.3972632308
 20
101.9863141272
 30
0.0
 11
83.3972632308
 21
123.986314008
 31
0.0
  0
LINE
  5
2A3
330
1F
100
AcDbEntity
  8
OBRYS
100
AcDbLine
 10
83.3972632308
 20
123.986314008
 30
0.0
 11
112.3972623963
 21
123.986314008
 31
0.0
  0
LINE
  5
2A4
330
1F
100
AcDbEntity
  8
OBRYS
100
AcDbLine
 10
112.3972623963
 20
123.986314008
 30
0.0
 11
112.3972623963
 21
101.9863141272
 31
0.0
  0
LINE
  5
2A5
330
1F
100
AcDbEntity
  8
OBRYS
100
AcDbLine
 10
112.3972623963
 20
101.9863141272
 30
0.0
 11
83.3972632308
 21
101.9863141272
 31
0.0
  0
LINE
  5
2A6
330
1F
100
AcDbEntity
  8
OBRYS
100
AcDbLine
 10
91.8972627614
 20
116.2363141347
 30
0.0
 11
103.8972628657
 21
116.2363141347
 31
0.0
  0
ARC
  5
2A7
330
1F
100
AcDbEntity
  8
OBRYS
100
AcDbCircle
 10
91.8972628135
 20
112.9863140676
 30
0.0
 40
3.25
100
AcDbArc
 50
90.0
 51
270.0
  0
LINE
  5
2A8
330
1F
100
AcDbEntity
  8
OBRYS
100
AcDbLine
 10
103.8972628657
 20
109.7363140006
 30
0.0
 11
91.8972627614
 21
109.7363140006
 31
0.0
  0
ARC
  5
2A9
330
1F
100
AcDbEntity
  8
OBRYS
100
AcDbCircle
 10
103.8972628135
 20
112.9863140676
 30
0.0
 40
3.25
100
AcDbArc
 50
270.0
 51
90.0
  0
LINE
  5
2AA
330
1F
100
AcDbEntity
  8
OBRYS
100
AcDbLine
 10
129.3972633202
 20
120.9863144476
 30
0.0
 11
129.3972633202
 21
122.9863138441
 31
0.0
  0
LINE
  5
2AB
330
1F
100
AcDbEntity
  8
OBRYS
100
AcDbLine
 10
124.3972625006
 20
120.9863144476
 30
0.0
 11
129.3972633202
 21
120.9863144476
 31
0.0
  0
LINE
  5
2AC
330
1F
100
AcDbEntity
  8
OBRYS
100
AcDbLine
 10
129.3972633202
 20
122.9863138441
 30
0.0
 11
124.3972625006
 21
122.9863138441
 31
0.0
  0
LINE
  5
2AD
330
1F
100
AcDbEntity
  8
OBRYS
100
AcDbLine
 10
124.3972625006
 20
107.4863140974
 30
0.0
 11
129.3972633202
 21
107.4863140974
 31
0.0
  0
LINE
  5
2AE
330
1F
100
AcDbEntity
  8
OBRYS
100
AcDbLine
 10
129.3972633202
 20
107.4863140974
 30
0.0
 11
129.3972633202
 21
118.4863140378
 31
0.0
  0
LINE
  5
2AF
330
1F
100
AcDbEntity
  8
OBRYS
100
AcDbLine
 10
129.3972633202
 20
118.4863140378
 30
0.0
 11
124.3972625006
 21
118.4863140378
 31
0.0
  0
LINE
  5
2B0
330
1F
100
AcDbEntity
  8
OBRYS
100
AcDbLine
 10
120.2513645757
 20
120.9863144476
 30
0.0
 11
124.3972625006
 21
120.9863144476
 31
0.0
  0
LINE
  5
2B1
330
1F
100
AcDbEntity
  8
OBRYS
100
AcDbLine
 10
124.3972625006
 20
122.9863138441
 30
0.0
 11
120.2513645757
 21
122.9863138441
 31
0.0
  0
LINE
  5
2B2
330
1F
100
AcDbEntity
  8
OBRYS
100
AcDbLine
 10
120.2513645757
 20
107.4863140974
 30
0.0
 11
124.3972625006
 21
107.4863140974
 31
0.0
  0
LINE
  5
2B3
330
1F
100
AcDbEntity
  8
OBRYS
100
AcDbLine
 10
124.3972625006
 20
118.4863140378
 30
0.0
 11
120.2513645757
 21
118.4863140378
 31
0.0
  0
LINE
  5
2B4
330
1F
100
AcDbEntity
  8
OBRYS
100
AcDbLine
 10
120.2513645757
 20
118.4863140378
 30
0.0
 11
120.2513645757
 21
120.9863144476
 31
0.0
  0
LINE
  5
2B5
330
1F
100
AcDbEntity
  8
OBRYS
100
AcDbLine
 10
120.2513645757
 20
104.9863136876
 30
0.0
 11
120.2513645757
 21
107.4863140974
 31
0.0
  0
LINE
  5
2B6
330
1F
100
AcDbEntity
  8
OBRYS
100
AcDbLine
 10
120.2513645757
 20
102.9863142911
 30
0.0
 11
119.2930504102
 21
102.9863142911
 31
0.0
  0
LINE
  5
2B7
330
1F
100
AcDbEntity
  8
OBRYS
100
AcDbLine
 10
120.2513645757
 20
122.9863138441
 30
0.0
 11
119.2930504102
 21
122.9863138441
 31
0.0
  0
LINE
  5
2B8
330
1F
100
AcDbEntity
  8
OBRYS
100
AcDbLine
 10
129.3972633202
 20
102.9863142911
 30
0.0
 11
129.3972633202
 21
104.9863136876
 31
0.0
  0
LINE
  5
2B9
330
1F
100
AcDbEntity
  8
OBRYS
100
AcDbLine
 10
129.3972633202
 20
102.9863142911
 30
0.0
 11
124.3972625006
 21
102.9863142911
 31
0.0
  0
LINE
  5
2BA
330
1F
100
AcDbEntity
  8
OBRYS
100
AcDbLine
 10
129.3972633202
 20
104.9863136876
 30
0.0
 11
124.3972625006
 21
104.9863136876
 31
0.0
  0
LINE
  5
2BB
330
1F
100
AcDbEntity
  8
OBRYS
100
AcDbLine
 10
124.3972625006
 20
102.9863142911
 30
0.0
 11
120.2513645757
 21
102.9863142911
 31
0.0
  0
LINE
  5
2BC
330
1F
100
AcDbEntity
  8
OBRYS
100
AcDbLine
 10
124.3972625006
 20
104.9863136876
 30
0.0
 11
120.2513645757
 21
104.9863136876
 31
0.0
  0
LINE
  5
2BD
330
1F
100
AcDbEntity
  8
OBRYS
100
AcDbLine
 10
113.5431616921
 20
102.9863142911
 30
0.0
 11
112.3972623963
 21
102.9863142911
 31
0.0
  0
LINE
  5
2BE
330
1F
100
AcDbEntity
  8
OBRYS
100
AcDbLine
 10
83.3972632308
 20
102.9863142911
 30
0.0
 11
82.2513639349
 21
102.9863142911
 31
0.0
  0
LINE
  5
2BF
330
1F
100
AcDbEntity
  8
OBRYS
100
AcDbLine
 10
113.5431616921
 20
122.9863138441
 30
0.0
 11
112.3972623963
 21
122.9863138441
 31
0.0
  0
LINE
  5
2C0
330
1F
100
AcDbEntity
  8
OBRYS
100
AcDbLine
 10
83.3972632308
 20
122.9863138441
 30
0.0
 11
82.2513639349
 21
122.9863138441
 31
0.0
  0
LINE
  5
2C1
330
1F
100
AcDbEntity
  8
OBRYS
100
AcDbLine
 10
114.5014758576
 20
102.9863142911
 30
0.0
 11
113.5431616921
 21
102.9863142911
 31
0.0
  0
LINE
  5
2C2
330
1F
100
AcDbEntity
  8
OBRYS
100
AcDbLine
 10
114.5014758576
 20
122.9863138441
 30
0.0
 11
113.5431616921
 21
122.9863138441
 31
0.0
  0
LINE
  5
2C3
330
1F
100
AcDbEntity
  8
OBRYS
100
AcDbLine
 10
75.5431610513
 20
107.4863140974
 30
0.0
 11
75.5431610513
 21
104.9863136876
 31
0.0
  0
LINE
  5
2C4
330
1F
100
AcDbEntity
  8
OBRYS
100
AcDbLine
 10
75.5431610513
 20
120.9863144476
 30
0.0
 11
75.5431610513
 21
118.4863140378
 31
0.0
  0
LINE
  5
2C5
330
1F
100
AcDbEntity
  8
OBRYS
100
AcDbLine
 10
76.5014752168
 20
102.9863142911
 30
0.0
 11
75.5431610513
 21
102.9863142911
 31
0.0
  0
LINE
  5
2C6
330
1F
100
AcDbEntity
  8
OBRYS
100
AcDbLine
 10
76.5014752168
 20
122.9863138441
 30
0.0
 11
75.5431610513
 21
122.9863138441
 31
0.0
  0
LINE
  5
2C7
330
1F
100
AcDbEntity
  8
OBRYS
100
AcDbLine
 10
71.3972631264
 20
120.9863144476
 30
0.0
 11
75.5431610513
 21
120.9863144476
 31
0.0
  0
LINE
  5
2C8
330
1F
100
AcDbEntity
  8
OBRYS
100
AcDbLine
 10
75.5431610513
 20
122.9863138441
 30
0.0
 11
71.3972631264
 21
122.9863138441
 31
0.0
  0
LINE
  5
2C9
330
1F
100
AcDbEntity
  8
OBRYS
100
AcDbLine
 10
71.3972631264
 20
107.4863140974
 30
0.0
 11
75.5431610513
 21
107.4863140974
 31
0.0
  0
LINE
  5
2CA
330
1F
100
AcDbEntity
  8
OBRYS
100
AcDbLine
 10
75.5431610513
 20
118.4863140378
 30
0.0
 11
71.3972631264
 21
118.4863140378
 31
0.0
  0
LINE
  5
2CB
330
1F
100
AcDbEntity
  8
OBRYS
100
AcDbLine
 10
66.3972623069
 20
120.9863144476
 30
0.0
 11
66.3972623069
 21
122.9863138441
 31
0.0
  0
LINE
  5
2CC
330
1F
100
AcDbEntity
  8
OBRYS
100
AcDbLine
 10
66.3972623069
 20
120.9863144476
 30
0.0
 11
71.3972631264
 21
120.9863144476
 31
0.0
  0
LINE
  5
2CD
330
1F
100
AcDbEntity
  8
OBRYS
100
AcDbLine
 10
71.3972631264
 20
122.9863138441
 30
0.0
 11
66.3972623069
 21
122.9863138441
 31
0.0
  0
LINE
  5
2CE
330
1F
100
AcDbEntity
  8
OBRYS
100
AcDbLine
 10
66.3972623069
 20
107.4863140974
 30
0.0
 11
71.3972631264
 21
107.4863140974
 31
0.0
  0
LINE
  5
2CF
330
1F
100
AcDbEntity
  8
OBRYS
100
AcDbLine
 10
66.3972623069
 20
107.4863140974
 30
0.0
 11
66.3972623069
 21
118.4863140378
 31
0.0
  0
LINE
  5
2D0
330
1F
100
AcDbEntity
  8
OBRYS
100
AcDbLine
 10
71.3972631264
 20
118.4863140378
 30
0.0
 11
66.3972623069
 21
118.4863140378
 31
0.0
  0
LINE
  5
2D1
330
1F
100
AcDbEntity
  8
OBRYS
100
AcDbLine
 10
75.5431610513
 20
104.9863136876
 30
0.0
 11
71.3972631264
 21
104.9863136876
 31
0.0
  0
LINE
  5
2D2
330
1F
100
AcDbEntity
  8
OBRYS
100
AcDbLine
 10
75.5431610513
 20
102.9863142911
 30
0.0
 11
71.3972631264
 21
102.9863142911
 31
0.0
  0
LINE
  5
2D3
330
1F
100
AcDbEntity
  8
OBRYS
100
AcDbLine
 10
66.3972623069
 20
102.9863142911
 30
0.0
 11
66.3972623069
 21
104.9863136876
 31
0.0
  0
LINE
  5
2D4
330
1F
100
AcDbEntity
  8
OBRYS
100
AcDbLine
 10
71.3972631264
 20
104.9863136876
 30
0.0
 11
66.3972623069
 21
104.9863136876
 31
0.0
  0
LINE
  5
2D5
330
1F
100
AcDbEntity
  8
OBRYS
100
AcDbLine
 10
71.3972631264
 20
102.9863142911
 30
0.0
 11
66.3972623069
 21
102.9863142911
 31
0.0
  0
LINE
  5
2D6
330
1F
100
AcDbEntity
  8
OBRYS
100
AcDbLine
 10
82.2513639349
 20
102.9863142911
 30
0.0
 11
81.2930497695
 21
102.9863142911
 31
0.0
  0
LINE
  5
2D7
330
1F
100
AcDbEntity
  8
OBRYS
100
AcDbLine
 10
82.2513639349
 20
122.9863138441
 30
0.0
 11
81.2930497695
 21
122.9863138441
 31
0.0
  0
LINE
  5
2D8
330
1F
100
AcDbEntity
  8
OBRYS
100
AcDbLine
 10
119.2930504102
 20
102.9863142911
 30
0.0
 11
114.5014758576
 21
102.9863142911
 31
0.0
  0
LINE
  5
2D9
330
1F
100
AcDbEntity
  8
OBRYS
100
AcDbLine
 10
119.2930504102
 20
122.9863138441
 30
0.0
 11
114.5014758576
 21
122.9863138441
 31
0.0
  0
LINE
  5
2DA
330
1F
100
AcDbEntity
  8
OBRYS
100
AcDbLine
 10
81.2930497695
 20
102.9863142911
 30
0.0
 11
76.5014752168
 21
102.9863142911
 31
0.0
  0
LINE
  5
2DB
330
1F
100
AcDbEntity
  8
OBRYS
100
AcDbLine
 10
81.2930497695
 20
122.9863138441
 30
0.0
 11
76.5014752168
 21
122.9863138441
 31
0.0
  0
LINE
  5
2DC
330
1F
100
AcDbEntity
  8
OBRYS
100
AcDbLine
 10
129.3972633202
 20
120.9863144476
 30
0.0
 11
129.8518083412
 21
120.9863144476
 31
0.0
  0
LINE
  5
2DD
330
1F
100
AcDbEntity
  8
OBRYS
100
AcDbLine
 10
129.8518083412
 20
122.9863138441
 30
0.0
 11
129.3972633202
 21
122.9863138441
 31
0.0
  0
LINE
  5
2DE
330
1F
100
AcDbEntity
  8
OBRYS
100
AcDbLine
 10
129.8518083412
 20
118.4863140378
 30
0.0
 11
129.3972633202
 21
118.4863140378
 31
0.0
  0
LINE
  5
2DF
330
1F
100
AcDbEntity
  8
OBRYS
100
AcDbLine
 10
129.8518083412
 20
102.9863142911
 30
0.0
 11
129.3972633202
 21
102.9863142911
 31
0.0
  0
LINE
  5
2E0
330
1F
100
AcDbEntity
  8
OBRYS
100
AcDbLine
 10
129.8518083412
 20
104.9863136876
 30
0.0
 11
129.3972633202
 21
104.9863136876
 31
0.0
  0
LINE
  5
2E1
330
1F
100
AcDbEntity
  8
OBRYS
100
AcDbLine
 10
65.9427172858
 20
120.9863144476
 30
0.0
 11
66.3972623069
 21
120.9863144476
 31
0.0
  0
LINE
  5
2E2
330
1F
100
AcDbEntity
  8
OBRYS
100
AcDbLine
 10
66.3972623069
 20
122.9863138441
 30
0.0
 11
65.9427172858
 21
122.9863138441
 31
0.0
  0
LINE
  5
2E3
330
1F
100
AcDbEntity
  8
OBRYS
100
AcDbLine
 10
66.3972623069
 20
104.9863136876
 30
0.0
 11
65.9427172858
 21
104.9863136876
 31
0.0
  0
LINE
  5
2E4
330
1F
100
AcDbEntity
  8
OBRYS
100
AcDbLine
 10
66.3972623069
 20
102.9863142911
 30
0.0
 11
65.9427172858
 21
102.9863142911
 31
0.0
  0
LINE
  5
2E5
330
1F
100
AcDbEntity
  8
OBRYS
100
AcDbLine
 10
131.7201680858
 20
104.9863136876
 30
0.0
 11
131.7201680858
 21
105.4865088817
 31
0.0
  0
LINE
  5
2E6
330
1F
100
AcDbEntity
  8
OBRYS
100
AcDbLine
 10
131.7201680858
 20
118.4863140378
 30
0.0
 11
131.7201680858
 21
118.4865091499
 31
0.0
  0
LINE
  5
2E7
330
1F
100
AcDbEntity
  8
OBRYS
100
AcDbLine
 10
131.7201680858
 20
120.4865090121
 30
0.0
 11
131.7201680858
 21
120.9863144476
 31
0.0
  0
LINE
  5
2E8
330
1F
100
AcDbEntity
  8
OBRYS
100
AcDbLine
 10
131.8972646613
 20
102.9863142911
 30
0.0
 11
129.8518083412
 21
102.9863142911
 31
0.0
  0
LINE
  5
2E9
330
1F
100
AcDbEntity
  8
OBRYS
100
AcDbLine
 10
131.7201680858
 20
104.9863136876
 30
0.0
 11
129.8518083412
 21
104.9863136876
 31
0.0
  0
LINE
  5
2EA
330
1F
100
AcDbEntity
  8
OBRYS
100
AcDbLine
 10
131.7201680858
 20
118.4863140378
 30
0.0
 11
129.8518083412
 21
118.4863140378
 31
0.0
  0
LINE
  5
2EB
330
1F
100
AcDbEntity
  8
OBRYS
100
AcDbLine
 10
129.8518083412
 20
120.9863144476
 30
0.0
 11
131.7201680858
 21
120.9863144476
 31
0.0
  0
LINE
  5
2EC
330
1F
100
AcDbEntity
  8
OBRYS
100
AcDbLine
 10
131.8972646613
 20
122.9863138441
 30
0.0
 11
129.8518083412
 21
122.9863138441
 31
0.0
  0
LINE
  5
2ED
330
1F
100
AcDbEntity
  8
OBRYS
100
AcDbLine
 10
64.0743575413
 20
120.9863144476
 30
0.0
 11
64.0743575413
 21
120.4863139
 31
0.0
  0
LINE
  5
2EE
330
1F
100
AcDbEntity
  8
OBRYS
100
AcDbLine
 10
64.0743575413
 20
105.4863142352
 30
0.0
 11
64.0743575413
 21
104.9863136876
 31
0.0
  0
LINE
  5
2EF
330
1F
100
AcDbEntity
  8
OBRYS
100
AcDbLine
 10
65.9427172858
 20
104.9863136876
 30
0.0
 11
64.0743575413
 21
104.9863136876
 31
0.0
  0
LINE
  5
2F0
330
1F
100
AcDbEntity
  8
OBRYS
100
AcDbLine
 10
64.0743575413
 20
120.9863144476
 30
0.0
 11
65.9427172858
 21
120.9863144476
 31
0.0
  0
LINE
  5
2F1
330
1F
100
AcDbEntity
  8
OBRYS
100
AcDbLine
 10
65.9427172858
 20
102.9863142911
 30
0.0
 11
63.8972609658
 21
102.9863142911
 31
0.0
  0
LINE
  5
2F2
330
1F
100
AcDbEntity
  8
OBRYS
100
AcDbLine
 10
65.9427172858
 20
122.9863138441
 30
0.0
 11
63.8972609658
 21
122.9863138441
 31
0.0
  0
LINE
  5
2F3
330
1F
100
AcDbEntity
  8
OBRYS
100
AcDbLine
 10
129.562327208
 20
120.9863144476
 30
0.0
 11
129.562327208
 21
120.4865090121
 31
0.0
  0
LINE
  5
2F4
330
1F
100
AcDbEntity
  8
OBRYS
100
AcDbLine
 10
129.562327208
 20
118.4865091499
 30
0.0
 11
129.562327208
 21
118.4863140378
 31
0.0
  0
LINE
  5
2F5
330
1F
100
AcDbEntity
  8
OBRYS
100
AcDbLine
 10
129.562327208
 20
105.4865088817
 30
0.0
 11
129.562327208
 21
104.9863136876
 31
0.0
  0
LINE
  5
2F6
330
1F
100
AcDbEntity
  8
OBRYS
100
AcDbLine
 10
66.232198419
 20
104.9863136876
 30
0.0
 11
66.232198419
 21
105.4863142352
 31
0.0
  0
LINE
  5
2F7
330
1F
100
AcDbEntity
  8
OBRYS
100
AcDbLine
 10
66.232198419
 20
120.4863139
 30
0.0
 11
66.232198419
 21
120.9863144476
 31
0.0
  0
LINE
  5
2F8
330
1F
100
AcDbEntity
  8
OBRYS
100
AcDbLine
 10
129.3972633202
 20
118.4863140378
 30
0.0
 11
129.3972633202
 21
118.4865091499
 31
0.0
  0
LINE
  5
2F9
330
1F
100
AcDbEntity
  8
OBRYS
100
AcDbLine
 10
129.3972633202
 20
120.4865090121
 30
0.0
 11
129.3972633202
 21
120.9863144476
 31
0.0
  0
LINE
  5
2FA
330
1F
100
AcDbEntity
  8
OBRYS
100
AcDbLine
 10
127.3972629923
 20
120.9863144476
 30
0.0
 11
127.3972629923
 21
120.4865090121
 31
0.0
  0
LINE
  5
2FB
330
1F
100
AcDbEntity
  8
OBRYS
100
AcDbLine
 10
127.3972629923
 20
118.4865091499
 30
0.0
 11
127.3972629923
 21
118.4863140378
 31
0.0
  0
LINE
  5
2FC
330
1F
100
AcDbEntity
  8
OBRYS
100
AcDbLine
 10
129.3972633202
 20
104.9863136876
 30
0.0
 11
129.3972633202
 21
105.4865088817
 31
0.0
  0
LINE
  5
2FD
330
1F
100
AcDbEntity
  8
OBRYS
100
AcDbLine
 10
127.3972629923
 20
105.4865088817
 30
0.0
 11
127.3972629923
 21
104.9863136876
 31
0.0
  0
LINE
  5
2FE
330
1F
100
AcDbEntity
  8
OBRYS
100
AcDbLine
 10
66.3972623069
 20
120.9863144476
 30
0.0
 11
66.3972623069
 21
120.4863139
 31
0.0
  0
LINE
  5
2FF
330
1F
100
AcDbEntity
  8
OBRYS
100
AcDbLine
 10
68.3972626347
 20
120.4863139
 30
0.0
 11
68.3972626347
 21
120.9863144476
 31
0.0
  0
LINE
  5
300
330
1F
100
AcDbEntity
  8
OBRYS
100
AcDbLine
 10
66.3972623069
 20
105.4863142352
 30
0.0
 11
66.3972623069
 21
104.9863136876
 31
0.0
  0
LINE
  5
301
330
1F
100
AcDbEntity
  8
OBRYS
100
AcDbLine
 10
68.3972626347
 20
104.9863136876
 30
0.0
 11
68.3972626347
 21
105.4863142352
 31
0.0
  0
LINE
  5
302
330
1F
100
AcDbEntity
  8
OBRYS
100
AcDbLine
 10
138.3972629327
 20
107.9863141794
 30
0.0
 11
138.3972629327
 21
117.9863139559
 31
0.0
  0
LINE
  5
303
330
1F
100
AcDbEntity
  8
OBRYS
100
AcDbLine
 10
131.8972646613
 20
107.9863141794
 30
0.0
 11
138.3972629327
 21
107.9863141794
 31
0.0
  0
LINE
  5
304
330
1F
100
AcDbEntity
  8
OBRYS
100
AcDbLine
 10
138.3972629327
 20
117.9863139559
 30
0.0
 11
131.8972646613
 21
117.9863139559
 31
0.0
  0
LINE
  5
305
330
1F
100
AcDbEntity
  8
OBRYS
100
AcDbLine
 10
57.3972626943
 20
107.9863141794
 30
0.0
 11
57.3972626943
 21
117.9863139559
 31
0.0
  0
LINE
  5
306
330
1F
100
AcDbEntity
  8
OBRYS
100
AcDbLine
 10
57.3972626943
 20
107.9863141794
 30
0.0
 11
63.8972609658
 21
107.9863141794
 31
0.0
  0
LINE
  5
307
330
1F
100
AcDbEntity
  8
OBRYS
100
AcDbLine
 10
63.8972609658
 20
117.9863139559
 30
0.0
 11
57.3972626943
 21
117.9863139559
 31
0.0
  0
CIRCLE
  5
308
330
1F
100
AcDbEntity
  8
OBRYS
100
AcDbCircle
 10
134.3972628135
 20
112.9863140673
 30
0.0
 40
1.999999999999988
  0
CIRCLE
  5
309
330
1F
100
AcDbEntity
  8
OBRYS
100
AcDbCircle
 10
61.3972628135
 20
112.9863140676
 30
0.0
 40
2.000000000000003
  0
LINE
  5
30A
330
1F
100
AcDbEntity
  8
OBRYS
100
AcDbLine
 10
122.5538566131
 20
105.4865088817
 30
0.0
 11
134.8712495882
 21
105.4865088817
 31
0.0
  0
LINE
  5
30B
330
1F
100
AcDbEntity
  8
OBRYS
100
AcDbLine
 10
122.5538566131
 20
107.4863140974
 30
0.0
 11
122.5538566131
 21
105.4865088817
 31
0.0
  0
LINE
  5
30C
330
1F
100
AcDbEntity
  8
OBRYS
100
AcDbLine
 10
129.3972633202
 20
107.4865092095
 30
0.0
 11
134.8712495882
 21
107.4865092095
 31
0.0
  0
LINE
  5
30D
330
1F
100
AcDbEntity
  8
OBRYS
100
AcDbLine
 10
122.5538566131
 20
120.4865090121
 30
0.0
 11
134.8712495882
 21
120.4865090121
 31
0.0
  0
LINE
  5
30E
330
1F
100
AcDbEntity
  8
OBRYS
100
AcDbLine
 10
122.5538566131
 20
118.4865091499
 30
0.0
 11
134.8712495882
 21
118.4865091499
 31
0.0
  0
LINE
  5
30F
330
1F
100
AcDbEntity
  8
OBRYS
100
AcDbLine
 10
122.5538566131
 20
118.4865091499
 30
0.0
 11
122.5538566131
 21
120.4865090121
 31
0.0
  0
LINE
  5
310
330
1F
100
AcDbEntity
  8
OBRYS
100
AcDbLine
 10
140.6226656754
 20
118.4865091499
 30
0.0
 11
140.6226656754
 21
120.4865090121
 31
0.0
  0
LINE
  5
311
330
1F
100
AcDbEntity
  8
OBRYS
100
AcDbLine
 10
134.8712495882
 20
118.4865091499
 30
0.0
 11
140.6226656754
 21
118.4865091499
 31
0.0
  0
LINE
  5
312
330
1F
100
AcDbEntity
  8
OBRYS
100
AcDbLine
 10
134.8712495882
 20
120.4865090121
 30
0.0
 11
140.6226656754
 21
120.4865090121
 31
0.0
  0
LINE
  5
313
330
1F
100
AcDbEntity
  8
OBRYS
100
AcDbLine
 10
140.6226656754
 20
107.4865092095
 30
0.0
 11
140.6226656754
 21
105.4865088817
 31
0.0
  0
LINE
  5
314
330
1F
100
AcDbEntity
  8
OBRYS
100
AcDbLine
 10
134.8712495882
 20
105.4865088817
 30
0.0
 11
140.6226656754
 21
105.4865088817
 31
0.0
  0
LINE
  5
315
330
1F
100
AcDbEntity
  8
OBRYS
100
AcDbLine
 10
134.8712495882
 20
107.4865092095
 30
0.0
 11
140.6226656754
 21
107.4865092095
 31
0.0
  0
LINE
  5
316
330
1F
100
AcDbEntity
  8
OBRYS
100
AcDbLine
 10
122.1911269594
 20
118.4865091499
 30
0.0
 11
122.1911269594
 21
120.4865090121
 31
0.0
  0
LINE
  5
317
330
1F
100
AcDbEntity
  8
OBRYS
100
AcDbLine
 10
122.1911269594
 20
118.4865091499
 30
0.0
 11
122.5538566131
 21
118.4865091499
 31
0.0
  0
LINE
  5
318
330
1F
100
AcDbEntity
  8
OBRYS
100
AcDbLine
 10
122.1911269594
 20
120.4865090121
 30
0.0
 11
122.5538566131
 21
120.4865090121
 31
0.0
  0
LINE
  5
319
330
1F
100
AcDbEntity
  8
OBRYS
100
AcDbLine
 10
122.1911269594
 20
107.4863140974
 30
0.0
 11
122.1911269594
 21
105.4865088817
 31
0.0
  0
LINE
  5
31A
330
1F
100
AcDbEntity
  8
OBRYS
100
AcDbLine
 10
122.1911269594
 20
105.4865088817
 30
0.0
 11
122.5538566131
 21
105.4865088817
 31
0.0
  0
LINE
  5
31B
330
1F
100
AcDbEntity
  8
OBRYS
100
AcDbLine
 10
122.0584432948
 20
118.4865091499
 30
0.0
 11
122.1911269594
 21
118.4865091499
 31
0.0
  0
LINE
  5
31C
330
1F
100
AcDbEntity
  8
OBRYS
100
AcDbLine
 10
122.0584432948
 20
120.4865090121
 30
0.0
 11
122.1911269594
 21
120.4865090121
 31
0.0
  0
LINE
  5
31D
330
1F
100
AcDbEntity
  8
OBRYS
100
AcDbLine
 10
122.0584432948
 20
105.4865088817
 30
0.0
 11
122.1911269594
 21
105.4865088817
 31
0.0
  0
LINE
  5
31E
330
1F
100
AcDbEntity
  8
OBRYS
100
AcDbLine
 10
122.0576963741
 20
118.4863140378
 30
0.0
 11
122.0584432948
 21
118.4865091499
 31
0.0
  0
ELLIPSE
  5
31F
330
1F
100
AcDbEntity
  8
OBRYS
100
AcDbEllipse
 10
140.6226658066
 20
117.9865090689
 30
0.0
 11
0.0
 21
0.5
 31
0.0
210
0.0
220
0.0
230
1.0
 40
0.7634446511
 41
4.7123889803847
 42
6.283185307179586
  0
ELLIPSE
  5
320
330
1F
100
AcDbEntity
  8
OBRYS
100
AcDbEllipse
 10
140.6226658066
 20
107.9865090689
 30
0.0
 11
0.0
 21
0.5
 31
0.0
210
0.0
220
0.0
230
1.0
 40
0.7634446511
 41
3.141592653589793
 42
4.7123889803847
  0
ARC
  5
321
330
1F
100
AcDbEntity
  8
OBRYS
100
AcDbCircle
 10
129.3702693469
 20
119.0024889024
 30
0.0
 40
7.460905836526575
100
AcDbArc
 50
168.5269986201
 51
183.9671168094
  0
ELLIPSE
  5
322
330
1F
100
AcDbEntity
  8
OBRYS
100
AcDbEllipse
 10
140.6226658066
 20
117.9865090689
 30
0.0
 11
0.0
 21
2.499999999999986
 31
0.0
210
0.0
220
0.0
230
1.0
 40
0.1098388028
 41
5.312817391374514
 42
6.283185307179586
  0
ARC
  5
323
330
1F
100
AcDbEntity
  8
OBRYS
100
AcDbCircle
 10
132.0534351731
 20
107.1464367947
 30
0.0
 40
10.13189139906053
100
AcDbArc
 50
178.0776354283
 51
189.4293890199
  0
ELLIPSE
  5
324
330
1F
100
AcDbEntity
  8
OBRYS
100
AcDbEllipse
 10
140.6226658066
 20
107.9865090689
 30
0.0
 11
0.0
 21
2.499999999999986
 31
0.0
210
0.0
220
0.0
230
1.0
 40
0.1098388028
 41
3.141592653589792
 42
4.113279087928378
  0
LINE
  5
325
330
1F
100
AcDbEntity
  8
OBRYS
100
AcDbLine
 10
141.0043887217
 20
117.9865090679
 30
0.0
 11
141.0043887217
 21
117.9863139559
 31
0.0
  0
LINE
  5
326
330
1F
100
AcDbEntity
  8
OBRYS
100
AcDbLine
 10
73.2406690139
 20
120.4863139
 30
0.0
 11
60.9232760388
 21
120.4863139
 31
0.0
  0
LINE
  5
327
330
1F
100
AcDbEntity
  8
OBRYS
100
AcDbLine
 10
73.2406690139
 20
118.4863140378
 30
0.0
 11
73.2406690139
 21
120.4863139
 31
0.0
  0
LINE
  5
328
330
1F
100
AcDbEntity
  8
OBRYS
100
AcDbLine
 10
66.3972623069
 20
118.4863140378
 30
0.0
 11
60.9232760388
 21
118.4863140378
 31
0.0
  0
LINE
  5
329
330
1F
100
AcDbEntity
  8
OBRYS
100
AcDbLine
 10
73.2406690139
 20
105.4863142352
 30
0.0
 11
60.9232760388
 21
105.4863142352
 31
0.0
  0
LINE
  5
32A
330
1F
100
AcDbEntity
  8
OBRYS
100
AcDbLine
 10
73.2406690139
 20
107.4863140974
 30
0.0
 11
73.2406690139
 21
105.4863142352
 31
0.0
  0
LINE
  5
32B
330
1F
100
AcDbEntity
  8
OBRYS
100
AcDbLine
 10
66.3972623069
 20
107.4863140974
 30
0.0
 11
60.9232760388
 21
107.4863140974
 31
0.0
  0
LINE
  5
32C
330
1F
100
AcDbEntity
  8
OBRYS
100
AcDbLine
 10
55.1718599517
 20
118.4863140378
 30
0.0
 11
55.1718599517
 21
120.4863139
 31
0.0
  0
LINE
  5
32D
330
1F
100
AcDbEntity
  8
OBRYS
100
AcDbLine
 10
60.9232760388
 20
118.4863140378
 30
0.0
 11
55.1718599517
 21
118.4863140378
 31
0.0
  0
LINE
  5
32E
330
1F
100
AcDbEntity
  8
OBRYS
100
AcDbLine
 10
60.9232760388
 20
120.4863139
 30
0.0
 11
55.1718599517
 21
120.4863139
 31
0.0
  0
LINE
  5
32F
330
1F
100
AcDbEntity
  8
OBRYS
100
AcDbLine
 10
55.1718599517
 20
107.4863140974
 30
0.0
 11
55.1718599517
 21
105.4863142352
 31
0.0
  0
LINE
  5
330
330
1F
100
AcDbEntity
  8
OBRYS
100
AcDbLine
 10
60.9232760388
 20
105.4863142352
 30
0.0
 11
55.1718599517
 21
105.4863142352
 31
0.0
  0
LINE
  5
331
330
1F
100
AcDbEntity
  8
OBRYS
100
AcDbLine
 10
60.9232760388
 20
107.4863140974
 30
0.0
 11
55.1718599517
 21
107.4863140974
 31
0.0
  0
LINE
  5
332
330
1F
100
AcDbEntity
  8
OBRYS
100
AcDbLine
 10
73.6033986676
 20
118.4863140378
 30
0.0
 11
73.6033986676
 21
120.4863139
 31
0.0
  0
LINE
  5
333
330
1F
100
AcDbEntity
  8
OBRYS
100
AcDbLine
 10
73.6033986676
 20
120.4863139
 30
0.0
 11
73.2406690139
 21
120.4863139
 31
0.0
  0
LINE
  5
334
330
1F
100
AcDbEntity
  8
OBRYS
100
AcDbLine
 10
73.6033986676
 20
107.4863140974
 30
0.0
 11
73.6033986676
 21
105.4863142352
 31
0.0
  0
LINE
  5
335
330
1F
100
AcDbEntity
  8
OBRYS
100
AcDbLine
 10
73.6033986676
 20
105.4863142352
 30
0.0
 11
73.2406690139
 21
105.4863142352
 31
0.0
  0
LINE
  5
336
330
1F
100
AcDbEntity
  8
OBRYS
100
AcDbLine
 10
73.7360823322
 20
120.4863139
 30
0.0
 11
73.6033986676
 21
120.4863139
 31
0.0
  0
LINE
  5
337
330
1F
100
AcDbEntity
  8
OBRYS
100
AcDbLine
 10
73.7360823322
 20
105.4863142352
 30
0.0
 11
73.6033986676
 21
105.4863142352
 31
0.0
  0
ELLIPSE
  5
338
330
1F
100
AcDbEntity
  8
OBRYS
100
AcDbEllipse
 10
55.1718598205
 20
117.9863140676
 30
0.0
 11
0.0
 21
0.5
 31
0.0
210
0.0
220
0.0
230
1.0
 40
0.7634446511
 41
0.0
 42
1.570796326794897
  0
ELLIPSE
  5
339
330
1F
100
AcDbEntity
  8
OBRYS
100
AcDbEllipse
 10
55.1718598205
 20
107.9863140676
 30
0.0
 11
0.0
 21
0.5000000000000142
 31
0.0
210
0.0
220
0.0
230
1.0
 40
0.7634446511
 41
1.570796326794897
 42
3.141592653589793
  0
ARC
  5
33A
330
1F
100
AcDbEntity
  8
OBRYS
100
AcDbCircle
 10
63.740092874
 20
118.8262685963
 30
0.0
 40
10.13289473241054
100
AcDbArc
 50
358.0773887639
 51
9.4291196937
  0
ELLIPSE
  5
33B
330
1F
100
AcDbEntity
  8
OBRYS
100
AcDbEllipse
 10
55.1718598205
 20
117.9863140676
 30
0.0
 11
0.0
 21
2.5
 31
0.0
210
0.0
220
0.0
230
1.0
 40
0.1098388028
 41
0.0
 42
0.9716864343383853
  0
ARC
  5
33C
330
1F
100
AcDbEntity
  8
OBRYS
100
AcDbCircle
 10
66.4247577239
 20
106.9702441716
 30
0.0
 40
7.460396476319869
100
AcDbArc
 50
348.5269113081
 51
3.9665802343
  0
ELLIPSE
  5
33D
330
1F
100
AcDbEntity
  8
OBRYS
100
AcDbEllipse
 10
55.1718598205
 20
107.9863140676
 30
0.0
 11
0.0
 21
2.500000000000014
 31
0.0
210
0.0
220
0.0
230
1.0
 40
0.1098388028
 41
2.171224737784835
 42
3.141592653589792
  0
LINE
  5
33E
330
1F
100
AcDbEntity
  8
OBRYS
100
AcDbLine
 10
54.7901369054
 20
117.9861924183
 30
0.0
 11
54.7901369054
 21
117.9863139559
 31
0.0
  0
LINE
  5
33F
330
1F
100
AcDbEntity
  8
0
  6
SLD-Plná
 62
     7
100
AcDbLine
 10
55.7758896966
 20
107.9861926418
 30
0.0
 11
55.7758896966
 21
117.9861924183
 31
0.0
  0
LINE
  5
340
330
1F
100
AcDbEntity
  8
0
  6
SLD-Plná
 62
     7
100
AcDbLine
 10
56.1936549265
 20
107.9861926418
 30
0.0
 11
56.1936549265
 21
117.9861924183
 31
0.0
  0
LINE
  5
341
330
1F
100
AcDbEntity
  8
0
  6
SLD-Plná
 62
     7
100
AcDbLine
 10
140.0186359305
 20
117.9863139559
 30
0.0
 11
140.0186359305
 21
107.9863141794
 31
0.0
  0
LINE
  5
342
330
1F
100
AcDbEntity
  8
0
  6
SLD-Plná
 62
     7
100
AcDbLine
 10
139.6008707006
 20
117.9863139559
 30
0.0
 11
139.6008707006
 21
107.9863141794
 31
0.0
  0
LINE
  5
343
330
1F
100
AcDbEntity
  8
0
  6
SLD-Plná
 62
     7
100
AcDbLine
 10
124.3972625006
 20
120.9863144476
 30
0.0
 11
124.3972625006
 21
122.9863138441
 31
0.0
  0
LINE
  5
344
330
1F
100
AcDbEntity
  8
0
  6
SLD-Plná
 62
     7
100
AcDbLine
 10
124.3972625006
 20
107.4863140974
 30
0.0
 11
124.3972625006
 21
118.4863140378
 31
0.0
  0
LINE
  5
345
330
1F
100
AcDbEntity
  8
0
  6
SLD-Plná
 62
     7
100
AcDbLine
 10
120.2513645757
 20
120.9863144476
 30
0.0
 11
120.2513645757
 21
122.9863138441
 31
0.0
  0
LINE
  5
346
330
1F
100
AcDbEntity
  8
0
  6
SLD-Plná
 62
     7
100
AcDbLine
 10
120.2513645757
 20
107.4863140974
 30
0.0
 11
120.2513645757
 21
118.4863140378
 31
0.0
  0
LINE
  5
347
330
1F
100
AcDbEntity
  8
0
  6
SLD-Plná
 62
     7
100
AcDbLine
 10
120.2513645757
 20
102.9863142911
 30
0.0
 11
120.2513645757
 21
104.9863136876
 31
0.0
  0
LINE
  5
348
330
1F
100
AcDbEntity
  8
0
  6
SLD-Plná
 62
     7
100
AcDbLine
 10
119.2930504102
 20
102.9863142911
 30
0.0
 11
119.2930504102
 21
122.9863138441
 31
0.0
  0
LINE
  5
349
330
1F
100
AcDbEntity
  8
0
  6
SLD-Plná
 62
     7
100
AcDbLine
 10
124.3972625006
 20
102.9863142911
 30
0.0
 11
124.3972625006
 21
104.9863136876
 31
0.0
  0
LINE
  5
34A
330
1F
100
AcDbEntity
  8
0
  6
SLD-Plná
 62
     7
100
AcDbLine
 10
113.5431616921
 20
102.9863142911
 30
0.0
 11
113.5431616921
 21
122.9863138441
 31
0.0
  0
LINE
  5
34B
330
1F
100
AcDbEntity
  8
0
  6
SLD-Plná
 62
     7
100
AcDbLine
 10
82.2513639349
 20
102.9863142911
 30
0.0
 11
82.2513639349
 21
122.9863138441
 31
0.0
  0
LINE
  5
34C
330
1F
100
AcDbEntity
  8
0
  6
SLD-Plná
 62
     7
100
AcDbLine
 10
114.5014758576
 20
102.9863142911
 30
0.0
 11
114.5014758576
 21
122.9863138441
 31
0.0
  0
LINE
  5
34D
330
1F
100
AcDbEntity
  8
0
  6
SLD-Plná
 62
     7
100
AcDbLine
 10
76.5014752168
 20
102.9863142911
 30
0.0
 11
76.5014752168
 21
122.9863138441
 31
0.0
  0
LINE
  5
34E
330
1F
100
AcDbEntity
  8
0
  6
SLD-Plná
 62
     7
100
AcDbLine
 10
75.5431610513
 20
102.9863142911
 30
0.0
 11
75.5431610513
 21
104.9863136876
 31
0.0
  0
LINE
  5
34F
330
1F
100
AcDbEntity
  8
0
  6
SLD-Plná
 62
     7
100
AcDbLine
 10
75.5431610513
 20
107.4863140974
 30
0.0
 11
75.5431610513
 21
118.4863140378
 31
0.0
  0
LINE
  5
350
330
1F
100
AcDbEntity
  8
0
  6
SLD-Plná
 62
     7
100
AcDbLine
 10
75.5431610513
 20
120.9863144476
 30
0.0
 11
75.5431610513
 21
122.9863138441
 31
0.0
  0
LINE
  5
351
330
1F
100
AcDbEntity
  8
0
  6
SLD-Plná
 62
     7
100
AcDbLine
 10
71.3972631264
 20
120.9863144476
 30
0.0
 11
71.3972631264
 21
122.9863138441
 31
0.0
  0
LINE
  5
352
330
1F
100
AcDbEntity
  8
0
  6
SLD-Plná
 62
     7
100
AcDbLine
 10
71.3972631264
 20
107.4863140974
 30
0.0
 11
71.3972631264
 21
118.4863140378
 31
0.0
  0
LINE
  5
353
330
1F
100
AcDbEntity
  8
0
  6
SLD-Plná
 62
     7
100
AcDbLine
 10
71.3972631264
 20
102.9863142911
 30
0.0
 11
71.3972631264
 21
104.9863136876
 31
0.0
  0
LINE
  5
354
330
1F
100
AcDbEntity
  8
0
  6
SLD-Plná
 62
     7
100
AcDbLine
 10
81.2930497695
 20
102.9863142911
 30
0.0
 11
81.2930497695
 21
122.9863138441
 31
0.0
  0
LINE
  5
355
330
1F
100
AcDbEntity
  8
0
  6
SLD-Plná
 62
     7
100
AcDbLine
 10
129.8518083412
 20
120.9863144476
 30
0.0
 11
129.8518083412
 21
122.9863138441
 31
0.0
  0
LINE
  5
356
330
1F
100
AcDbEntity
  8
0
  6
SLD-Plná
 62
     7
100
AcDbLine
 10
129.8518083412
 20
107.4865092095
 30
0.0
 11
129.8518083412
 21
118.4863140378
 31
0.0
  0
LINE
  5
357
330
1F
100
AcDbEntity
  8
0
  6
SLD-Plná
 62
     7
100
AcDbLine
 10
129.8518083412
 20
102.9863142911
 30
0.0
 11
129.8518083412
 21
104.9863136876
 31
0.0
  0
LINE
  5
358
330
1F
100
AcDbEntity
  8
0
  6
SLD-Plná
 62
     7
100
AcDbLine
 10
65.9427172858
 20
120.9863144476
 30
0.0
 11
65.9427172858
 21
122.9863138441
 31
0.0
  0
LINE
  5
359
330
1F
100
AcDbEntity
  8
0
  6
SLD-Plná
 62
     7
100
AcDbLine
 10
65.9427172858
 20
107.4863140974
 30
0.0
 11
65.9427172858
 21
118.4863140378
 31
0.0
  0
LINE
  5
35A
330
1F
100
AcDbEntity
  8
0
  6
SLD-Plná
 62
     7
100
AcDbLine
 10
65.9427172858
 20
102.9863142911
 30
0.0
 11
65.9427172858
 21
104.9863136876
 31
0.0
  0
LINE
  5
35B
330
1F
100
AcDbEntity
  8
0
  6
SLD-Plná
 62
     7
100
AcDbLine
 10
122.0584432948
 20
118.4865091499
 30
0.0
 11
122.0584432948
 21
120.4865090121
 31
0.0
  0
LINE
  5
35C
330
1F
100
AcDbEntity
  8
0
  6
SLD-Plná
 62
     7
100
AcDbLine
 10
122.0584432948
 20
107.4863140974
 30
0.0
 11
122.0584432948
 21
105.4865088817
 31
0.0
  0
LINE
  5
35D
330
1F
100
AcDbEntity
  8
0
  6
SLD-Plná
 62
     7
100
AcDbLine
 10
131.8972646613
 20
117.9865090679
 30
0.0
 11
141.0043887217
 21
117.9865090679
 31
0.0
  0
LINE
  5
35E
330
1F
100
AcDbEntity
  8
0
  6
SLD-Plná
 62
     7
100
AcDbLine
 10
73.7360823322
 20
118.4863140378
 30
0.0
 11
73.7360823322
 21
120.4863139
 31
0.0
  0
LINE
  5
35F
330
1F
100
AcDbEntity
  8
0
  6
SLD-Plná
 62
     7
100
AcDbLine
 10
73.7360823322
 20
107.4863140974
 30
0.0
 11
73.7360823322
 21
105.4863142352
 31
0.0
  0
LINE
  5
360
330
1F
100
AcDbEntity
  8
0
  6
SLD-Plná
 62
     7
100
AcDbLine
 10
54.7901369054
 20
117.9863139559
 30
0.0
 11
57.3972626943
 21
117.9863139559
 31
0.0
  0
DIMENSION
  5
361
330
1F
100
AcDbEntity
  8
KOTY
100
AcDbDimension
  2
_D_8
 10
159.8972628135
 20
109.7363140676
 30
0.0
 11
159.8972628135
 21
100.7723717189
 31
0.0
 70
   160
  1
<>
 71
     2
 42
-1.0
  3
SLDDIMSTYLE2
100
AcDbAlignedDimension
 13
103.8972628135
 23
116.2363140676
 33
0.0
 14
103.8972628135
 24
109.7363140676
 34
0.0
 50
90.0
100
AcDbRotatedDimension
  0
DIMENSION
  5
36D
330
1F
100
AcDbEntity
  8
KOTY
100
AcDbDimension
  2
_D_9
 10
91.8972628135
 20
133.9863140676
 30
0.0
 11
97.8972628135
 21
133.9863140676
 31
0.0
 70
   160
  1
<>
 71
     2
 42
-1.0
  3
SLDDIMSTYLE1
100
AcDbAlignedDimension
 13
103.8972628135
 23
112.9863140676
 33
0.0
 14
91.8972628135
 24
112.9863140676
 34
0.0
100
AcDbRotatedDimension
  0
LINE
  5
379
330
1F
100
AcDbEntity
  8
OBRYS
100
AcDbLine
 10
378.8698577826
 20
88.8289453887
 30
0.0
 11
378.6778535337
 21
88.8786397451
 31
0.0
  0
LINE
  5
37A
330
1F
100
AcDbEntity
  8
OBRYS
100
AcDbLine
 10
308.6268719807
 20
68.3474851197
 30
0.0
 11
315.6979396346
 21
66.5173581416
 31
0.0
  0
LINE
  5
37B
330
1F
100
AcDbEntity
  8
OBRYS
100
AcDbLine
 10
317.3516528954
 20
72.9068178575
 30
0.0
 11
310.2805852416
 21
74.7369448356
 31
0.0
  0
LINE
  5
37C
330
1F
100
AcDbEntity
  8
OBRYS
100
AcDbLine
 10
316.9119868499
 20
71.7705752076
 30
0.0
 11
317.2437991101
 21
71.6846958753
 31
0.0
  0
LINE
  5
37D
330
1F
100
AcDbEntity
  8
OBRYS
100
AcDbLine
 10
335.2633015765
 20
134.8813450368
 30
0.0
 11
321.1211662689
 21
138.5415989929
 31
0.0
  0
LINE
  5
37E
330
1F
100
AcDbEntity
  8
OBRYS
100
AcDbLine
 10
332.1367126938
 20
132.202948075
 30
0.0
 11
336.2569135302
 21
131.1365616289
 31
0.0
  0
LINE
  5
37F
330
1F
100
AcDbEntity
  8
OBRYS
100
AcDbLine
 10
329.5032814514
 20
102.1388788537
 30
0.0
 11
329.1941422201
 21
102.2188899743
 31
0.0
  0
LINE
  5
380
330
1F
100
AcDbEntity
  8
OBRYS
100
AcDbLine
 10
362.1333583976
 20
141.8358274851
 30
0.0
 11
361.7796304348
 21
141.9273790187
 31
0.0
  0
LINE
  5
381
330
1F
100
AcDbEntity
  8
OBRYS
100
AcDbLine
 10
360.3654172991
 20
138.8057872829
 30
0.0
 11
363.1269716683
 21
138.0910444181
 31
0.0
  0
LINE
  5
382
330
1F
100
AcDbEntity
  8
OBRYS
100
AcDbLine
 10
370.8106187406
 20
143.8309631937
 30
0.0
 11
369.3964056049
 21
144.196988487
 31
0.0
  0
LINE
  5
383
330
1F
100
AcDbEntity
  8
OBRYS
100
AcDbLine
 10
367.6286383622
 20
144.6545203167
 30
0.0
 11
359.8504638113
 21
146.6676600266
 31
0.0
  0
LINE
  5
384
330
1F
100
AcDbEntity
  8
OBRYS
100
AcDbLine
 10
370.721456424
 20
118.2121056226
 30
0.0
 11
372.1356695596
 21
117.8460803292
 31
0.0
  0
LINE
  5
385
330
1F
100
AcDbEntity
  8
OBRYS
100
AcDbLine
 10
361.1755146304
 20
120.6827771622
 30
0.0
 11
368.9536891813
 21
118.6696374523
 31
0.0
  0
LINE
  5
386
330
1F
100
AcDbEntity
  8
OBRYS
100
AcDbLine
 10
358.0826965686
 20
147.1251918564
 30
0.0
 11
356.6684834329
 21
147.4912171497
 31
0.0
  0
LINE
  5
387
330
1F
100
AcDbEntity
  8
OBRYS
100
AcDbLine
 10
362.4421571614
 20
88.2523959902
 30
0.0
 11
369.5132248152
 21
86.4222690122
 31
0.0
  0
LINE
  5
388
330
1F
100
AcDbEntity
  8
OBRYS
100
AcDbLine
 10
357.993534252
 20
121.5063342853
 30
0.0
 11
359.4077473876
 21
121.1403089919
 31
0.0
  0
LINE
  5
389
330
1F
100
AcDbEntity
  8
OBRYS
100
AcDbLine
 10
315.9390108823
 20
85.9200732301
 30
0.0
 11
315.9390108823
 21
76.6478307618
 31
0.0
  0
LINE
  5
38A
330
1F
100
AcDbEntity
  8
OBRYS
100
AcDbLine
 10
315.9390108823
 20
71.4244149567
 30
0.0
 11
315.9390108823
 21
69.6096570286
 31
0.0
  0
LWPOLYLINE
  5
38B
330
1F
100
AcDbEntity
  8
OBRYS
100
AcDbPolyline
 90
        3
 70
   128
 43
0.0
 10
315.9284205811
 20
69.6135693253
 10
315.9159377054
 20
69.4193684696
 10
315.8753353907
 20
69.3207993459
  0
LINE
  5
38C
330
1F
100
AcDbEntity
  8
OBRYS
100
AcDbLine
 10
371.5578048211
 20
85.4959704138
 30
0.0
 11
371.5578048211
 21
85.6043528396
 31
0.0
  0
LINE
  5
38D
330
1F
100
AcDbEntity
  8
OBRYS
100
AcDbLine
 10
371.5578048211
 20
90.0077577184
 30
0.0
 11
371.5578048211
 21
96.6705619459
 31
0.0
  0
LINE
  5
38E
330
1F
100
AcDbEntity
  8
OBRYS
100
AcDbLine
 10
367.5578051503
 20
86.9283673195
 30
0.0
 11
367.5578051503
 21
86.7915614946
 31
0.0
  0
LINE
  5
38F
330
1F
100
AcDbEntity
  8
OBRYS
100
AcDbLine
 10
367.5578051503
 20
84.6892446961
 30
0.0
 11
367.5578051503
 21
82.9695840704
 31
0.0
  0
LINE
  5
390
330
1F
100
AcDbEntity
  8
OBRYS
100
AcDbLine
 10
367.3487569463
 20
82.4455828528
 30
0.0
 11
366.9035866212
 21
82.0313056823
 31
0.0
  0
ARC
  5
391
330
1F
100
AcDbEntity
  8
OBRYS
100
AcDbCircle
 10
366.8634809569
 20
82.9434016995
 30
0.0
 40
0.6934404230634607
100
AcDbArc
 50
315.785477177
 51
2.1816429942
  0
LINE
  5
392
330
1F
100
AcDbEntity
  8
OBRYS
100
AcDbLine
 10
325.4682300906
 20
101.7584009852
 30
0.0
 11
326.0577094141
 21
101.6058325096
 31
0.0
  0
LINE
  5
393
330
1F
100
AcDbEntity
  8
OBRYS
100
AcDbLine
 10
317.5954029376
 20
64.056152662
 30
0.0
 11
330.9874626361
 21
68.5035511276
 31
0.0
  0
LINE
  5
394
330
1F
100
AcDbEntity
  8
OBRYS
100
AcDbLine
 10
316.2758417455
 20
104.1375661589
 30
0.0
 11
316.5117679497
 21
104.076503964
 31
0.0
  0
LINE
  5
395
330
1F
100
AcDbEntity
  8
OBRYS
100
AcDbLine
 10
370.2558272613
 20
140.1710745456
 30
0.0
 11
369.2402482385
 21
140.4339257385
 31
0.0
  0
LINE
  5
396
330
1F
100
AcDbEntity
  8
OBRYS
100
AcDbLine
 10
369.4626492555
 20
113.1450659593
 30
0.0
 11
370.324751188
 21
112.9219375603
 31
0.0
  0
LINE
  5
397
330
1F
100
AcDbEntity
  8
OBRYS
100
AcDbLine
 10
364.8245578229
 20
77.2617363306
 30
0.0
 11
378.226170368
 21
79.7483488509
 31
0.0
  0
LINE
  5
398
330
1F
100
AcDbEntity
  8
OBRYS
100
AcDbLine
 10
360.2702612397
 20
115.5242310477
 30
0.0
 11
360.7788097237
 21
115.3926090147
 31
0.0
  0
LINE
  5
399
330
1F
100
AcDbEntity
  8
OBRYS
100
AcDbLine
 10
371.7014216891
 20
85.6415213061
 30
0.0
 11
367.7899518029
 21
84.6291584052
 31
0.0
  0
LINE
  5
39A
330
1F
100
AcDbEntity
  8
OBRYS
100
AcDbLine
 10
367.7899518029
 20
84.6291584052
 30
0.0
 11
367.7899518029
 21
85.7882692269
 31
0.0
  0
LINE
  5
39B
330
1F
100
AcDbEntity
  8
OBRYS
100
AcDbLine
 10
370.2531558755
 20
86.4257933529
 30
0.0
 11
367.7899518029
 21
85.7882692269
 31
0.0
  0
LINE
  5
39C
330
1F
100
AcDbEntity
  8
OBRYS
100
AcDbLine
 10
360.7188841491
 20
87.6183962049
 30
0.0
 11
367.7899518029
 21
85.7882692269
 31
0.0
  0
LINE
  5
39D
330
1F
100
AcDbEntity
  8
OBRYS
100
AcDbLine
 10
362.805311201
 20
88.1584032622
 30
0.0
 11
360.7188841491
 21
87.6183962049
 31
0.0
  0
ELLIPSE
  5
39E
330
1F
100
AcDbEntity
  8
OBRYS
100
AcDbEllipse
 10
367.3402157744
 20
87.5020681711
 30
0.0
 11
2.754518291755915
 21
0.002504745234332972
 31
0.0
210
0.0
220
0.0
230
1.0
 40
0.2588174549
 41
2.892209316633466
 42
4.958023609667702
  0
LINE
  5
39F
330
1F
100
AcDbEntity
  8
OBRYS
100
AcDbLine
 10
360.7188841491
 20
86.4592853832
 30
0.0
 11
367.7899518029
 21
84.6291584052
 31
0.0
  0
LINE
  5
3A0
330
1F
100
AcDbEntity
  8
OBRYS
100
AcDbLine
 10
360.7188841491
 20
86.4592853832
 30
0.0
 11
360.7188841491
 21
87.6183962049
 31
0.0
  0
LINE
  5
3A1
330
1F
100
AcDbEntity
  8
OBRYS
100
AcDbLine
 10
360.5799404775
 20
82.1544850855
 30
0.0
 11
364.7779934989
 21
81.0679490112
 31
0.0
  0
LINE
  5
3A2
330
1F
100
AcDbEntity
  8
OBRYS
100
AcDbLine
 10
360.5799404775
 20
82.1544850855
 30
0.0
 11
367.4873018692
 21
84.7074929385
 31
0.0
  0
LINE
  5
3A3
330
1F
100
AcDbEntity
  8
OBRYS
100
AcDbLine
 10
365.694755243
 20
83.0452214778
 30
0.0
 11
367.557806632
 21
83.733816251
 31
0.0
  0
ARC
  5
3A4
330
1F
100
AcDbEntity
  8
OBRYS
100
AcDbCircle
 10
367.2248684702
 20
89.2448728959
 30
0.0
 40
7.582505100345404
100
AcDbArc
 50
266.2655758209
 51
288.1259850051
  0
LWPOLYLINE
  5
3A5
330
1F
100
AcDbEntity
  8
OBRYS
100
AcDbPolyline
 90
        7
 70
   128
 43
0.0
 10
365.0796000924
 20
82.0908220656
 10
364.988515649
 20
82.1731889509
 10
364.897797768
 20
82.3463379232
 10
364.9268981089
 20
82.528035407
 10
365.0745421413
 20
82.7103402779
 10
365.3342795038
 20
82.8852827611
 10
365.694755243
 20
83.0452214778
  0
LINE
  5
3A6
330
1F
100
AcDbEntity
  8
OBRYS
100
AcDbLine
 10
369.8913037783
 20
82.1522904725
 30
0.0
 11
369.5838425184
 21
82.0386516228
 31
0.0
  0
LINE
  5
3A7
330
1F
100
AcDbEntity
  8
OBRYS
100
AcDbLine
 10
360.6085107725
 20
81.6806501368
 30
0.0
 11
360.5799404775
 21
82.1544850855
 31
0.0
  0
LINE
  5
3A8
330
1F
100
AcDbEntity
  8
OBRYS
100
AcDbLine
 10
366.6353938764
 20
87.1671050741
 30
0.0
 11
365.7065063112
 21
86.9266912815
 31
0.0
  0
ARC
  5
3A9
330
1F
100
AcDbEntity
  8
OBRYS
100
AcDbCircle
 10
377.2437665723
 20
85.8530420657
 30
0.0
 40
2.316714591685056
100
AcDbArc
 50
320.9678554624
 51
48.3514381888
  0
LWPOLYLINE
  5
3AA
330
1F
100
AcDbEntity
  8
OBRYS
100
AcDbPolyline
 90
       15
 70
   128
 43
0.0
 10
379.1478267852
 20
83.1125406561
 10
379.4545109626
 20
83.4612927491
 10
379.7685866435
 20
83.9351043766
 10
380.0252346092
 20
84.465461955
 10
380.2159122202
 20
85.0347211458
 10
380.3342763759
 20
85.623928552
 10
380.3763837117
 20
86.2134780568
 10
380.3408354792
 20
86.7837528447
 10
380.22881179
 20
87.3157675746
 10
380.0440452745
 20
87.7918164629
 10
379.7926841042
 20
88.1960639445
 10
379.4830917942
 20
88.5150506029
 10
379.125570615
 20
88.7381613369
 10
378.7320244171
 20
88.8579716947
 10
378.6789088512
 20
88.8657083479
  0
LINE
  5
3AB
330
1F
100
AcDbEntity
  8
OBRYS
100
AcDbLine
 10
365.916755865
 20
81.9643581359
 30
0.0
 11
367.4096446544
 21
82.5161373368
 31
0.0
  0
LWPOLYLINE
  5
3AC
330
1F
100
AcDbEntity
  8
OBRYS
100
AcDbPolyline
 90
       24
 70
   128
 43
0.0
 10
317.47479545
 20
67.0465357722
 10
317.1331873403
 20
66.7922441597
 10
316.7138103926
 20
66.5839262558
 10
316.2881430277
 20
66.4797179076
 10
315.8703492209
 20
66.4830799156
 10
315.4743374323
 20
66.5939093476
 10
315.1132864545
 20
66.8085139753
 10
314.7992107736
 20
67.1197480672
 10
314.542562808
 20
67.5172548828
 10
314.351885197
 20
67.9878120791
 10
314.2335210413
 20
68.5157496898
 10
314.1914137054
 20
69.0835028338
 10
314.226961938
 20
69.6721787409
 10
314.3389856271
 20
70.2621811993
 10
314.5237521426
 20
70.8338722738
 10
314.775113313
 20
71.3682338716
 10
315.0847056229
 20
71.8474773021
 10
315.4422268021
 20
72.2556546164
 10
315.8357730001
 20
72.5791794766
 10
316.252252352
 20
72.8072868328
 10
316.6778038131
 20
72.9323842144
 10
317.0982607738
 20
72.9503084604
 10
317.4996331147
 20
72.8604630778
 10
317.4996331147
 20
72.8604630778
  0
LWPOLYLINE
  5
3AD
330
1F
100
AcDbEntity
  8
OBRYS
100
AcDbPolyline
 90
       18
 70
   128
 43
0.0
 10
317.1659459783
 20
68.0484088264
 10
316.834405697
 20
67.8083564384
 10
316.4856431598
 20
67.6742153199
 10
316.1390564536
 20
67.6534421509
 10
315.8139303958
 20
67.7471959623
 10
315.5283512529
 20
67.9502587521
 10
315.2982057524
 20
68.2513341557
 10
315.1362986338
 20
68.6336754594
 10
315.0516335177
 20
69.0760113671
 10
315.0489229485
 20
69.5537325892
 10
315.1283197086
 20
70.0402616433
 10
315.2854036472
 20
70.5085355656
 10
315.5114371957
 20
70.9325005896
 10
315.7938447883
 20
71.2885712186
 10
316.1169188214
 20
71.5569428247
 10
316.4626810299
 20
71.7226781946
 10
316.8118992799
 20
71.7765644229
 10
317.1451465086
 20
71.715599289
  0
LWPOLYLINE
  5
3AE
330
1F
100
AcDbEntity
  8
OBRYS
100
AcDbPolyline
 90
       19
 70
   128
 43
0.0
 10
308.6268719807
 20
68.3474851197
 10
308.4032697785
 20
68.4240363257
 10
308.0422188007
 20
68.6386409533
 10
307.7281431198
 20
68.9498750452
 10
307.4714951542
 20
69.3473818608
 10
307.2808175431
 20
69.8179390572
 10
307.1624533874
 20
70.3458766679
 10
307.1203460516
 20
70.9136298118
 10
307.1558942842
 20
71.5023057189
 10
307.2679179733
 20
72.0923081773
 10
307.4526844888
 20
72.6639992518
 10
307.7040456592
 20
73.1983608496
 10
308.0136379691
 20
73.6776042801
 10
308.3711591483
 20
74.0857815944
 10
308.7647053463
 20
74.4093064546
 10
309.1811846982
 20
74.6374138108
 10
309.6067361592
 20
74.7625111925
 10
310.02719312
 20
74.7804354384
 10
310.2805852416
 20
74.7369448356
  0
ARC
  5
3AF
330
1F
100
AcDbEntity
  8
OBRYS
100
AcDbCircle
 10
317.5114022893
 20
72.7303254303
 30
0.0
 40
1.078801389836043
100
AcDbArc
 50
250.1534327397
 51
285.243229778
  0
ARC
  5
3B0
330
1F
100
AcDbEntity
  8
OBRYS
100
AcDbCircle
 10
317.6661143347
 20
73.3217027396
 30
0.0
 40
0.4903651926674586
100
AcDbArc
 50
250.1533078031
 51
285.242982524
  0
ARC
  5
3B1
330
1F
100
AcDbEntity
  8
OBRYS
100
AcDbCircle
 10
310.5918965901
 20
75.1791096736
 30
0.0
 40
0.5175301302838152
100
AcDbArc
 50
267.5733245711
 51
284.785414487
  0
LINE
  5
3B2
330
1F
100
AcDbEntity
  8
OBRYS
100
AcDbLine
 10
326.7778456142
 20
74.014399758
 30
0.0
 11
326.7778456142
 21
75.1735105797
 31
0.0
  0
LINE
  5
3B3
330
1F
100
AcDbEntity
  8
OBRYS
100
AcDbLine
 10
317.7950377417
 20
71.6894780021
 30
0.0
 11
317.8387914388
 21
71.7008022922
 31
0.0
  0
LINE
  5
3B4
330
1F
100
AcDbEntity
  8
OBRYS
100
AcDbLine
 10
324.4653586719
 20
73.4158840958
 30
0.0
 11
326.7778456142
 21
74.014399758
 31
0.0
  0
LINE
  5
3B5
330
1F
100
AcDbEntity
  8
OBRYS
100
AcDbLine
 10
317.7950377417
 20
72.8485888238
 30
0.0
 11
317.931314308
 21
72.8838597946
 31
0.0
  0
LINE
  5
3B6
330
1F
100
AcDbEntity
  8
OBRYS
100
AcDbLine
 10
324.2496721747
 20
74.5191711442
 30
0.0
 11
326.7778456142
 21
75.1735105797
 31
0.0
  0
LINE
  5
3B7
330
1F
100
AcDbEntity
  8
OBRYS
100
AcDbLine
 10
326.7778456142
 20
75.1735105797
 30
0.0
 11
325.6031354026
 21
75.4775479549
 31
0.0
  0
LINE
  5
3B8
330
1F
100
AcDbEntity
  8
OBRYS
100
AcDbLine
 10
310.7239700879
 20
74.6787158018
 30
0.0
 11
311.5750493024
 21
74.8989913114
 31
0.0
  0
ARC
  5
3B9
330
1F
100
AcDbEntity
  8
OBRYS
100
AcDbCircle
 10
318.3662485368
 20
66.7542564873
 30
0.0
 40
1.765093909295625
100
AcDbArc
 50
116.6204913937
 51
132.845356386
  0
LINE
  5
3BA
330
1F
100
AcDbEntity
  8
OBRYS
100
AcDbLine
 10
315.9390103884
 20
71.0333313322
 30
0.0
 11
315.5391553341
 21
70.9741405663
 31
0.0
  0
ARC
  5
3BB
330
1F
100
AcDbEntity
  8
OBRYS
100
AcDbCircle
 10
317.6303868055
 20
80.2451497384
 30
0.0
 40
11.0662599951156
100
AcDbArc
 50
256.5068744424
 51
270.0578553749
  0
LINE
  5
3BC
330
1F
100
AcDbEntity
  8
OBRYS
100
AcDbLine
 10
315.196851966
 20
70.2761167067
 30
0.0
 11
315.9390105531
 21
70.3859826905
 31
0.0
  0
LINE
  5
3BD
330
1F
100
AcDbEntity
  8
OBRYS
100
AcDbLine
 10
360.3654172991
 20
137.2111973879
 30
0.0
 11
342.6877475061
 21
132.6358797724
 31
0.0
  0
LINE
  5
3BE
330
1F
100
AcDbEntity
  8
OBRYS
100
AcDbLine
 10
342.6877475061
 20
132.6358797724
 30
0.0
 11
342.6877475061
 21
136.4995837108
 31
0.0
  0
LINE
  5
3BF
330
1F
100
AcDbEntity
  8
OBRYS
100
AcDbLine
 10
341.2735343704
 20
136.1335584175
 30
0.0
 11
342.6877475061
 21
136.4995837108
 31
0.0
  0
LINE
  5
3C0
330
1F
100
AcDbEntity
  8
OBRYS
100
AcDbLine
 10
341.2735343704
 20
138.7415573165
 30
0.0
 11
341.2735343704
 21
136.1335584175
 31
0.0
  0
LINE
  5
3C1
330
1F
100
AcDbEntity
  8
OBRYS
100
AcDbLine
 10
361.7796304348
 20
144.0489255187
 30
0.0
 11
341.2735343704
 21
138.7415573165
 31
0.0
  0
LINE
  5
3C2
330
1F
100
AcDbEntity
  8
OBRYS
100
AcDbLine
 10
361.7796304348
 20
144.0489255187
 30
0.0
 11
361.7796304348
 21
141.4409266197
 31
0.0
  0
LINE
  5
3C3
330
1F
100
AcDbEntity
  8
OBRYS
100
AcDbLine
 10
360.3654172991
 20
141.0749013263
 30
0.0
 11
361.7796304348
 21
141.4409266197
 31
0.0
  0
LINE
  5
3C4
330
1F
100
AcDbEntity
  8
OBRYS
100
AcDbLine
 10
360.3654172991
 20
137.2111973879
 30
0.0
 11
360.3654172991
 21
141.0749013263
 31
0.0
  0
LINE
  5
3C5
330
1F
100
AcDbEntity
  8
OBRYS
100
AcDbLine
 10
346.223281333
 20
148.0752049385
 30
0.0
 11
361.7796304348
 21
144.0489255187
 31
0.0
  0
LINE
  5
3C6
330
1F
100
AcDbEntity
  8
OBRYS
100
AcDbLine
 10
341.2735343704
 20
138.7415573165
 30
0.0
 11
325.7171852686
 21
142.7678367364
 31
0.0
  0
LINE
  5
3C7
330
1F
100
AcDbEntity
  8
OBRYS
100
AcDbLine
 10
325.7171852686
 20
142.7678367364
 30
0.0
 11
346.223281333
 21
148.0752049385
 31
0.0
  0
LINE
  5
3C8
330
1F
100
AcDbEntity
  8
OBRYS
100
AcDbLine
 10
350.289145662
 20
143.911666055
 30
0.0
 11
341.803864214
 21
141.7155136132
 31
0.0
  0
LWPOLYLINE
  5
3C9
330
1F
100
AcDbEntity
  8
OBRYS
100
AcDbPolyline
 90
       18
 70
   128
 43
0.0
 10
345.6929514894
 20
145.1012486418
 10
346.1543552659
 20
145.2004137748
 10
346.6783052949
 20
145.2759471222
 10
347.2469591361
 20
145.3252763026
 10
347.8409521236
 20
145.3467216344
 10
348.4400564043
 20
145.3395527656
 10
349.023870434
 20
145.3040138997
 10
349.5725128774
 20
145.2413151561
 10
350.0673009298
 20
145.153591829
 10
350.491384207
 20
145.0438310001
 10
350.8303211162
 20
144.9157704289
 10
351.0725704589
 20
144.7737713155
 10
351.2098820925
 20
144.6226691259
 10
351.2375804745
 20
144.467609528
 10
351.1547220753
 20
144.3138728302
 10
350.964128758
 20
144.166694386
 10
350.6722903141
 20
144.0310861399
 10
350.289145662
 20
143.911666055
  0
LINE
  5
3CA
330
1F
100
AcDbEntity
  8
OBRYS
100
AcDbLine
 10
337.2076700414
 20
142.9050962001
 30
0.0
 11
345.6929514894
 21
145.1012486418
 31
0.0
  0
LWPOLYLINE
  5
3CB
330
1F
100
AcDbEntity
  8
OBRYS
100
AcDbPolyline
 90
       18
 70
   128
 43
0.0
 10
341.803864214
 20
141.7155136132
 10
341.3424604374
 20
141.6163484802
 10
340.8185104084
 20
141.5408151328
 10
340.2498565673
 20
141.4914859525
 10
339.6558635798
 20
141.4700406207
 10
339.0567592991
 20
141.4772094895
 10
338.4729452694
 20
141.5127483554
 10
337.924302826
 20
141.5754470989
 10
337.4295147736
 20
141.6631704261
 10
337.0054314963
 20
141.7729312549
 10
336.6664945872
 20
141.9009918262
 10
336.4242452445
 20
142.0429909395
 10
336.2869336108
 20
142.1940931292
 10
336.2592352288
 20
142.349152727
 10
336.3420936281
 20
142.5028894249
 10
336.5326869454
 20
142.650067869
 10
336.8245253893
 20
142.7856761152
 10
337.2076700414
 20
142.9050962001
  0
LINE
  5
3CC
330
1F
100
AcDbEntity
  8
OBRYS
100
AcDbLine
 10
325.7171852686
 20
140.1598378373
 30
0.0
 11
341.2735343704
 21
136.1335584175
 31
0.0
  0
LINE
  5
3CD
330
1F
100
AcDbEntity
  8
OBRYS
100
AcDbLine
 10
325.7171852686
 20
142.7678367364
 30
0.0
 11
325.7171852686
 21
140.1598378373
 31
0.0
  0
LINE
  5
3CE
330
1F
100
AcDbEntity
  8
OBRYS
100
AcDbLine
 10
342.6877475061
 20
132.6358797724
 30
0.0
 11
339.8440229166
 21
133.3718898552
 31
0.0
  0
LINE
  5
3CF
330
1F
100
AcDbEntity
  8
OBRYS
100
AcDbLine
 10
341.980640609
 20
136.3165700635
 30
0.0
 11
341.980640609
 21
134.7507444735
 31
0.0
  0
ARC
  5
3D0
330
1F
100
AcDbEntity
  8
OBRYS
100
AcDbCircle
 10
327.7087858761
 20
99.8389116148
 30
0.0
 40
0.8392717360971614
100
AcDbArc
 50
355.6245118005
 51
52.1119736576
  0
LWPOLYLINE
  5
3D1
330
1F
100
AcDbEntity
  8
OBRYS
100
AcDbPolyline
 90
       13
 70
   128
 43
0.0
 10
328.2241996731
 20
100.5012753101
 10
327.8082102783
 20
100.8344088351
 10
327.4511211043
 20
101.2704513112
 10
327.1627075858
 20
101.7974657368
 10
326.9508669885
 20
102.4010256771
 10
326.8213997724
 20
103.06460875
 10
326.7778436386
 20
103.7700474452
 10
326.8213997724
 20
104.4980324525
 10
326.9508669885
 20
105.2286327459
 10
327.1627075858
 20
105.9418492797
 10
327.4511211043
 20
106.6181576407
 10
327.8082102783
 20
107.2390430748
 10
328.2241996731
 20
107.7875083308
  0
ARC
  5
3D2
330
1F
100
AcDbEntity
  8
OBRYS
100
AcDbCircle
 10
327.1560090896
 20
108.6763162615
 30
0.0
 40
1.389608095964368
100
AcDbArc
 50
320.2372183199
 51
0.1633239267
  0
LINE
  5
3D3
330
1F
100
AcDbEntity
  8
OBRYS
100
AcDbLine
 10
328.5456115399
 20
108.6802773899
 30
0.0
 11
328.5456115399
 21
128.3757251251
 31
0.0
  0
ARC
  5
3D4
330
1F
100
AcDbEntity
  8
OBRYS
100
AcDbCircle
 10
334.3719701612
 20
128.7502381198
 30
0.0
 40
5.838382889739748
100
AcDbArc
 50
113.1022386801
 51
183.6778603928
  0
LINE
  5
3D5
330
1F
100
AcDbEntity
  8
OBRYS
100
AcDbLine
 10
332.0811460253
 20
134.1204187076
 30
0.0
 11
335.0127385621
 21
134.8791706886
 31
0.0
  0
ARC
  5
3D6
330
1F
100
AcDbEntity
  8
OBRYS
100
AcDbCircle
 10
335.1188986312
 20
134.3155046855
 30
0.0
 40
0.573575908916771
100
AcDbArc
 50
4.9108442081
 51
100.666064943
  0
LWPOLYLINE
  5
3D7
330
1F
100
AcDbEntity
  8
OBRYS
100
AcDbPolyline
 90
       13
 70
   128
 43
0.0
 10
335.690369007
 20
134.3646059363
 10
335.8358559768
 20
133.9275838525
 10
336.0516675976
 20
133.5616517364
 10
336.3280034098
 20
133.2834270814
 10
336.6523155066
 20
133.1055453853
 10
337.0098761984
 20
133.0360838034
 10
337.384447095
 20
133.0781981652
 10
337.7590166744
 20
133.229975626
 10
338.1165773663
 20
133.4845242416
 10
338.440889463
 20
133.8302822321
 10
338.7172265924
 20
134.2515491701
 10
338.9330382131
 20
134.7291936014
 10
339.0785238658
 20
135.2415249415
  0
ARC
  5
3D8
330
1F
100
AcDbEntity
  8
OBRYS
100
AcDbCircle
 10
340.1555613929
 20
135.0960985721
 30
0.0
 40
1.086811236517075
100
AcDbArc
 50
111.5617422631
 51
172.3101780104
  0
LINE
  5
3D9
330
1F
100
AcDbEntity
  8
OBRYS
100
AcDbLine
 10
339.7561543107
 20
136.1068570232
 30
0.0
 11
340.5664274733
 21
136.3165711494
 31
0.0
  0
LINE
  5
3DA
330
1F
100
AcDbEntity
  8
OBRYS
100
AcDbLine
 10
361.7796304348
 20
141.8069520834
 30
0.0
 11
361.8827967003
 21
141.8336534778
 31
0.0
  0
ARC
  5
3DB
330
1F
100
AcDbEntity
  8
OBRYS
100
AcDbCircle
 10
361.9889557302
 20
141.2699861063
 30
0.0
 40
0.573577061379225
100
AcDbArc
 50
4.9109715157
 51
100.6659376353
  0
LWPOLYLINE
  5
3DC
330
1F
100
AcDbEntity
  8
OBRYS
100
AcDbPolyline
 90
       13
 70
   128
 43
0.0
 10
362.5604271452
 20
141.3190887255
 10
362.7059127979
 20
140.8820663008
 10
362.9217244186
 20
140.5161341847
 10
363.198061548
 20
140.2379098706
 10
363.5223736447
 20
140.0600281744
 10
363.8799343366
 20
139.9905665925
 10
364.254503916
 20
140.0326806135
 10
364.6290748126
 20
140.1844584152
 10
364.9866355044
 20
140.4390070307
 10
365.3109476012
 20
140.7847650213
 10
365.5872834135
 20
141.2060316184
 10
365.8030950342
 20
141.6836760497
 10
365.948582004
 20
142.1960077307
  0
ARC
  5
3DD
330
1F
100
AcDbEntity
  8
OBRYS
100
AcDbCircle
 10
367.0256170081
 20
142.050583337
 30
0.0
 40
1.086808471824957
100
AcDbArc
 50
111.5616568386
 51
172.3102634349
  0
LINE
  5
3DE
330
1F
100
AcDbEntity
  8
OBRYS
100
AcDbLine
 10
366.6262124489
 20
143.0613398123
 30
0.0
 11
369.5578049857
 21
143.8200917933
 31
0.0
  0
LWPOLYLINE
  5
3DF
330
1F
100
AcDbEntity
  8
OBRYS
100
AcDbPolyline
 90
       11
 70
   128
 43
0.0
 10
369.5578049857
 20
143.8200917933
 10
370.1108849078
 20
143.9037784082
 10
370.6503448124
 20
143.8664824282
 10
371.1629044909
 20
143.7091224902
 10
371.6359396452
 20
143.4355739183
 10
372.0578045741
 20
143.0525723237
 10
372.4181127137
 20
142.5695487225
 10
372.7079895181
 20
141.9983945235
 10
372.920297682
 20
141.353176177
 10
373.0498096792
 20
140.6497804145
 10
373.0933394711
 20
139.9055255297
  0
LINE
  5
3E0
330
1F
100
AcDbEntity
  8
OBRYS
100
AcDbLine
 10
373.0933394711
 20
139.9055255297
 30
0.0
 11
373.0933394711
 21
120.2100777946
 31
0.0
  0
ARC
  5
3E1
330
1F
100
AcDbEntity
  8
OBRYS
100
AcDbCircle
 10
373.9301668362
 20
120.1460482283
 30
0.0
 40
0.8392733907083084
100
AcDbArc
 50
175.6245579459
 51
232.1119143841
  0
LWPOLYLINE
  5
3E2
330
1F
100
AcDbEntity
  8
OBRYS
100
AcDbPolyline
 90
       13
 70
   128
 43
0.0
 10
373.4147513379
 20
119.4836837603
 10
373.8307407327
 20
119.1505504602
 10
374.1878299067
 20
118.7145079841
 10
374.4762434252
 20
118.1874934461
 10
374.6880840226
 20
117.5839336745
 10
374.8175512386
 20
116.9203505436
 10
374.8611073724
 20
116.2149118502
 10
374.8175512386
 20
115.4869268411
 10
374.6880840226
 20
114.7563266057
 10
374.4762434252
 20
114.0431099032
 10
374.1878299067
 20
113.3668016547
 10
373.8307407327
 20
112.7459162205
 10
373.4147513379
 20
112.1974507396
  0
ARC
  5
3E3
330
1F
100
AcDbEntity
  8
OBRYS
100
AcDbCircle
 10
374.4829392506
 20
111.3086437715
 30
0.0
 40
1.389605427266641
100
AcDbArc
 50
140.237178392
 51
180.1633546546
  0
LINE
  5
3E4
330
1F
100
AcDbEntity
  8
OBRYS
100
AcDbLine
 10
373.0933394711
 20
111.3046819054
 30
0.0
 11
373.0933394711
 21
98.3707153879
 31
0.0
  0
LINE
  5
3E5
330
1F
100
AcDbEntity
  8
OBRYS
100
AcDbLine
 10
371.6791256769
 20
98.0046899241
 30
0.0
 11
373.0933394711
 21
98.3707153879
 31
0.0
  0
LINE
  5
3E6
330
1F
100
AcDbEntity
  8
OBRYS
100
AcDbLine
 10
371.6791256769
 20
98.0046899241
 30
0.0
 11
371.6791256769
 21
112.1515406173
 31
0.0
  0
ARC
  5
3E7
330
1F
100
AcDbEntity
  8
OBRYS
100
AcDbCircle
 10
372.9755694557
 20
112.1806230425
 30
0.0
 40
1.296769932894686
100
AcDbArc
 50
127.6083597305
 51
181.2850698408
  0
LWPOLYLINE
  5
3E8
330
1F
100
AcDbEntity
  8
OBRYS
100
AcDbPolyline
 90
       13
 70
   128
 43
0.0
 10
372.1842016557
 20
113.2079249767
 10
372.5316892508
 20
113.4965993813
 10
372.8404610142
 20
113.8713195506
 10
373.0964925822
 20
114.3150682043
 10
373.28815801
 20
114.8076936833
 10
373.4067539734
 20
115.3268248629
 10
373.4468935782
 20
115.8488863864
 10
373.4067539734
 20
116.3501700652
 10
373.28815801
 20
116.807911485
 10
373.0964925822
 20
117.2013236099
 10
372.8404610142
 20
117.5125406279
 10
372.5316892508
 20
117.7274287713
 10
372.1842016557
 20
117.8362303608
  0
ARC
  5
3E9
330
1F
100
AcDbEntity
  8
OBRYS
100
AcDbCircle
 10
372.3984696608
 20
118.5302916407
 30
0.0
 40
0.7263827078386017
100
AcDbArc
 50
172.0172381887
 51
252.8436921313
  0
LINE
  5
3EA
330
1F
100
AcDbEntity
  8
OBRYS
100
AcDbLine
 10
371.6791256769
 20
118.6311681551
 30
0.0
 11
371.6791256769
 21
139.5395000659
 31
0.0
  0
LWPOLYLINE
  5
3EB
330
1F
100
AcDbEntity
  8
OBRYS
100
AcDbPolyline
 90
        9
 70
   128
 43
0.0
 10
371.6791256769
 20
139.5395000659
 10
371.6383644061
 20
140.094278691
 10
371.5176492465
 20
140.606638664
 10
371.3216189857
 20
141.0568885476
 10
371.0578047387
 20
141.4277281424
 10
370.736348091
 20
141.704906003
 10
370.3695993861
 20
141.8777667696
 10
369.9716541108
 20
141.939670928
 10
369.5578049857
 20
141.8882398241
  0
LINE
  5
3EC
330
1F
100
AcDbEntity
  8
OBRYS
100
AcDbLine
 10
369.5578049857
 20
141.8882398241
 30
0.0
 11
367.5141056185
 21
141.3592915054
 31
0.0
  0
ARC
  5
3ED
330
1F
100
AcDbEntity
  8
OBRYS
100
AcDbCircle
 10
367.8390986828
 20
140.4415310981
 30
0.0
 40
0.9736039529260221
100
AcDbArc
 50
109.4998368462
 51
160.4802780907
  0
LWPOLYLINE
  5
3EE
330
1F
100
AcDbEntity
  8
OBRYS
100
AcDbPolyline
 90
       13
 70
   128
 43
0.0
 10
366.9214511227
 20
140.7668426605
 10
366.5987629967
 20
140.1150727469
 10
366.2119010255
 20
139.5271526178
 10
365.7714546047
 20
139.0191783018
 10
365.2894803673
 20
138.6050545524
 10
364.7791742281
 20
138.2961202994
 10
364.254503916
 20
138.1008286442
 10
363.7298349211
 20
138.024531302
 10
363.2195287819
 20
138.0693116597
 10
362.7375545444
 20
138.2339471853
 10
362.2971081237
 20
138.5139296572
 10
361.9102461525
 20
138.9015952943
 10
361.5875580265
 20
139.3863295427
  0
ARC
  5
3EF
330
1F
100
AcDbEntity
  8
OBRYS
100
AcDbCircle
 10
361.1189662465
 20
139.1717794425
 30
0.0
 40
0.5153736525410373
100
AcDbArc
 50
24.6012163285
 51
103.9293403258
  0
LINE
  5
3F0
330
1F
100
AcDbEntity
  8
OBRYS
100
AcDbLine
 10
360.9949028722
 20
139.6719976758
 30
0.0
 11
360.3654172991
 21
139.5090748209
 31
0.0
  0
LINE
  5
3F1
330
1F
100
AcDbEntity
  8
OBRYS
100
AcDbLine
 10
341.980640609
 20
134.7507444735
 30
0.0
 11
340.6440481389
 21
134.4048088867
 31
0.0
  0
ARC
  5
3F2
330
1F
100
AcDbEntity
  8
OBRYS
100
AcDbCircle
 10
340.9690423542
 20
133.4870464015
 30
0.0
 40
0.9736062958336235
100
AcDbArc
 50
109.4998598805
 51
160.4802078743
  0
LWPOLYLINE
  5
3F3
330
1F
100
AcDbEntity
  8
OBRYS
100
AcDbPolyline
 90
       13
 70
   128
 43
0.0
 10
340.0513929845
 20
133.8123598713
 10
339.7287048585
 20
133.1605899577
 10
339.3418428873
 20
132.5726698286
 10
338.9013964666
 20
132.0646955126
 10
338.4194222292
 20
131.6505717632
 10
337.9091160899
 20
131.3416375103
 10
337.384447095
 20
131.146346196
 10
336.8597767829
 20
131.0700485128
 10
336.3494706437
 20
131.1148288705
 10
335.8674964063
 20
131.2794643961
 10
335.4270499855
 20
131.559446868
 10
335.0401880143
 20
131.9471125051
 10
334.7174998883
 20
132.4318467535
  0
ARC
  5
3F4
330
1F
100
AcDbEntity
  8
OBRYS
100
AcDbCircle
 10
334.2489087817
 20
132.2172980628
 30
0.0
 40
0.5153724535389178
100
AcDbArc
 50
24.6011050231
 51
103.9293750845
  0
LINE
  5
3F5
330
1F
100
AcDbEntity
  8
OBRYS
100
AcDbLine
 10
334.1248453925
 20
132.7175150571
 30
0.0
 11
332.0811460253
 21
132.1885667384
 31
0.0
  0
ARC
  5
3F6
330
1F
100
AcDbEntity
  8
OBRYS
100
AcDbCircle
 10
333.4694652205
 20
128.9579500551
 30
0.0
 40
3.516292698508006
100
AcDbArc
 50
113.2550412398
 51
183.5250578331
  0
LINE
  5
3F7
330
1F
100
AcDbEntity
  8
OBRYS
100
AcDbLine
 10
329.9598253341
 20
128.7417505888
 30
0.0
 11
329.9598253341
 21
107.833418678
 31
0.0
  0
ARC
  5
3F8
330
1F
100
AcDbEntity
  8
OBRYS
100
AcDbCircle
 10
328.6633815553
 20
107.8043362529
 30
0.0
 40
1.2967699328944
100
AcDbArc
 50
307.6083597305
 51
1.2850698408
  0
LWPOLYLINE
  5
3F9
330
1F
100
AcDbEntity
  8
OBRYS
100
AcDbPolyline
 90
       13
 70
   128
 43
0.0
 10
329.4547493553
 20
106.7770343187
 10
329.1072617602
 20
106.488359914
 10
328.7984899968
 20
106.1136397447
 10
328.5424584288
 20
105.6698910348
 10
328.350793001
 20
105.177265584
 10
328.2321970376
 20
104.6581343762
 10
328.1920574328
 20
104.136072909
 10
328.2321970376
 20
103.6347891739
 10
328.350793001
 20
103.1770477822
 10
328.5424584288
 20
102.7836356293
 10
328.7984899968
 20
102.4724186674
 10
329.1072617602
 20
102.2575305241
 10
329.4547493553
 20
102.1487289346
  0
ARC
  5
3FA
330
1F
100
AcDbEntity
  8
OBRYS
100
AcDbCircle
 10
329.2404813502
 20
101.4546676547
 30
0.0
 40
0.7263827078384902
100
AcDbArc
 50
352.0172381887
 51
72.8436921312
  0
LINE
  5
3FB
330
1F
100
AcDbEntity
  8
OBRYS
100
AcDbLine
 10
329.9598253341
 20
101.3537911403
 30
0.0
 11
329.9598253341
 21
87.206940447
 31
0.0
  0
LINE
  5
3FC
330
1F
100
AcDbEntity
  8
OBRYS
100
AcDbLine
 10
328.5456115399
 20
86.8409149833
 30
0.0
 11
329.9598253341
 21
87.206940447
 31
0.0
  0
LINE
  5
3FD
330
1F
100
AcDbEntity
  8
OBRYS
100
AcDbLine
 10
328.5456115399
 20
86.8409149833
 30
0.0
 11
328.5456115399
 21
99.7748815007
 31
0.0
  0
ARC
  5
3FE
330
1F
100
AcDbEntity
  8
OBRYS
100
AcDbCircle
 10
332.9577570255
 20
129.1162634131
 30
0.0
 40
5.838382889739581
100
AcDbArc
 50
113.1022386801
 51
183.6778603928
  0
LINE
  5
3FF
330
1F
100
AcDbEntity
  8
OBRYS
100
AcDbLine
 10
327.1313984042
 20
128.7417504184
 30
0.0
 11
327.1313984042
 21
109.0463026833
 31
0.0
  0
ARC
  5
400
330
1F
100
AcDbEntity
  8
OBRYS
100
AcDbCircle
 10
331.1899897828
 20
129.5737952428
 30
0.0
 40
5.838382889739854
100
AcDbArc
 50
113.1022386801
 51
183.6778603928
  0
LINE
  5
401
330
1F
100
AcDbEntity
  8
OBRYS
100
AcDbLine
 10
328.899165647
 20
134.9439758307
 30
0.0
 11
331.8307581838
 21
135.7027278117
 31
0.0
  0
LINE
  5
402
330
1F
100
AcDbEntity
  8
OBRYS
100
AcDbLine
 10
331.8307581838
 20
135.7027278117
 30
0.0
 11
331.8307581838
 21
134.7876627632
 31
0.0
  0
ARC
  5
403
330
1F
100
AcDbEntity
  8
OBRYS
100
AcDbCircle
 10
330.6060316607
 20
129.6740327143
 30
0.0
 40
3.82420214603152
100
AcDbArc
 50
124.65835152
 51
178.5855438814
  0
LINE
  5
404
330
1F
100
AcDbEntity
  8
OBRYS
100
AcDbLine
 10
326.7778449557
 20
124.6361437158
 30
0.0
 11
326.7778449557
 21
117.7065629121
 31
0.0
  0
LINE
  5
405
330
1F
100
AcDbEntity
  8
OBRYS
100
AcDbLine
 10
325.3636311615
 20
128.6744515062
 30
0.0
 11
325.3636311615
 21
129.1992822481
 31
0.0
  0
ARC
  5
406
330
1F
100
AcDbEntity
  8
OBRYS
100
AcDbCircle
 10
323.4118152319
 20
131.5869349527
 30
0.0
 40
5.838382889739909
100
AcDbArc
 50
113.1022386801
 51
183.6778603928
  0
LINE
  5
407
330
1F
100
AcDbEntity
  8
OBRYS
100
AcDbLine
 10
333.5985254265
 20
135.2451959819
 30
0.0
 11
330.6669328897
 21
134.4864440009
 31
0.0
  0
LINE
  5
408
330
1F
100
AcDbEntity
  8
OBRYS
100
AcDbLine
 10
317.5854566106
 20
131.212421958
 30
0.0
 11
317.5854566106
 21
130.6877567404
 31
0.0
  0
LINE
  5
409
330
1F
100
AcDbEntity
  8
OBRYS
100
AcDbLine
 10
317.5854566106
 20
127.0153089212
 30
0.0
 11
317.5854566106
 21
120.0857281174
 31
0.0
  0
LINE
  5
40A
330
1F
100
AcDbEntity
  8
OBRYS
100
AcDbLine
 10
315.2043032325
 20
108.0377293354
 30
0.0
 11
315.9429148988
 21
107.8465625692
 31
0.0
  0
ARC
  5
40B
330
1F
100
AcDbEntity
  8
OBRYS
100
AcDbCircle
 10
322.3763781558
 20
106.5562227408
 30
0.0
 40
6.561587182392561
100
AcDbArc
 50
158.8962220254
 51
168.6588388247
  0
LINE
  5
40C
330
1F
100
AcDbEntity
  8
OBRYS
100
AcDbLine
 10
324.3966912483
 20
105.658564247
 30
0.0
 11
325.4888566924
 21
105.3758910296
 31
0.0
  0
ARC
  5
40D
330
1F
100
AcDbEntity
  8
OBRYS
100
AcDbCircle
 10
328.8585325298
 20
103.653273029
 30
0.0
 40
3.458060589178197
100
AcDbArc
 50
183.8157124725
 51
233.6726820726
  0
LINE
  5
40E
330
1F
100
AcDbEntity
  8
OBRYS
100
AcDbLine
 10
324.4451686851
 20
103.6723823289
 30
0.0
 11
325.408137575
 21
103.4231476404
 31
0.0
  0
LWPOLYLINE
  5
40F
330
1F
100
AcDbEntity
  8
OBRYS
100
AcDbPolyline
 90
        3
 70
   128
 43
0.0
 10
324.5717024147
 20
101.7138479408
 10
324.7764597073
 20
101.5199545548
 10
325.0422192948
 20
101.3248324332
  0
ARC
  5
410
330
1F
100
AcDbEntity
  8
OBRYS
100
AcDbCircle
 10
319.3125907361
 20
106.1239445686
 30
0.0
 40
3.458060589178141
100
AcDbArc
 50
183.8157124725
 51
233.6726820726
  0
LINE
  5
411
330
1F
100
AcDbEntity
  8
OBRYS
100
AcDbLine
 10
315.25278034
 20
106.0515475026
 30
0.0
 11
315.8621957814
 21
105.89381918
 31
0.0
  0
LINE
  5
412
330
1F
100
AcDbEntity
  8
OBRYS
100
AcDbLine
 10
315.3941240771
 20
103.8637823972
 30
0.0
 11
315.4962775011
 21
103.7955039728
 31
0.0
  0
ARC
  5
413
330
1F
100
AcDbEntity
  8
OBRYS
100
AcDbCircle
 10
331.4681150567
 20
104.2349827438
 30
0.0
 40
6.087134161779847
100
AcDbArc
 50
139.9284940291
 51
169.1971915533
  0
LINE
  5
414
330
1F
100
AcDbEntity
  8
OBRYS
100
AcDbLine
 10
331.8307581838
 20
135.7027278117
 30
0.0
 11
333.5985254265
 21
135.2451959819
 31
0.0
  0
LINE
  5
415
330
1F
100
AcDbEntity
  8
OBRYS
100
AcDbLine
 10
322.2848163901
 20
138.1733993513
 30
0.0
 11
324.0525836329
 21
137.7158675216
 31
0.0
  0
ARC
  5
416
330
1F
100
AcDbEntity
  8
OBRYS
100
AcDbCircle
 10
321.0000165365
 20
138.0643829591
 30
0.0
 40
0.4923539382454281
100
AcDbArc
 50
75.7553801679
 51
105.2390032264
  0
ARC
  5
417
330
1F
100
AcDbEntity
  8
OBRYS
100
AcDbCircle
 10
325.741795954
 20
109.0423415548
 30
0.0
 40
1.389608095964386
100
AcDbArc
 50
320.2372183199
 51
0.1633239267
  0
LINE
  5
418
330
1F
100
AcDbEntity
  8
OBRYS
100
AcDbLine
 10
324.0525836329
 20
137.7158675216
 30
0.0
 11
321.1209910961
 21
136.9571155406
 31
0.0
  0
LINE
  5
419
330
1F
100
AcDbEntity
  8
OBRYS
100
AcDbLine
 10
333.5985254265
 20
132.3474180281
 30
0.0
 11
333.1467131861
 21
132.4643556407
 31
0.0
  0
ARC
  5
41A
330
1F
100
AcDbEntity
  8
OBRYS
100
AcDbCircle
 10
335.9793680101
 20
134.2221459495
 30
0.0
 40
3.0303491857028
100
AcDbArc
 50
213.618325412
 51
218.217674906
  0
ARC
  5
41B
330
1F
100
AcDbEntity
  8
OBRYS
100
AcDbCircle
 10
321.514546699
 20
139.5915068894
 30
0.0
 40
3.490662746812556
100
AcDbArc
 50
326.8614051339
 51
348.6038029996
  0
ARC
  5
41C
330
1F
100
AcDbEntity
  8
OBRYS
100
AcDbCircle
 10
326.2945727405
 20
100.2049369081
 30
0.0
 40
0.8392717360972605
100
AcDbArc
 50
355.6245118005
 51
52.1119736576
  0
LINE
  5
41D
330
1F
100
AcDbEntity
  8
OBRYS
100
AcDbLine
 10
315.8288352337
 20
97.1352209227
 30
0.0
 11
317.5854566106
 21
96.6805738553
 31
0.0
  0
LINE
  5
41E
330
1F
100
AcDbEntity
  8
OBRYS
100
AcDbLine
 10
317.5854566106
 20
96.6805738553
 30
0.0
 11
317.5854566106
 21
102.6115783337
 31
0.0
  0
LINE
  5
41F
330
1F
100
AcDbEntity
  8
OBRYS
100
AcDbLine
 10
325.3636311615
 20
100.5984386238
 30
0.0
 11
325.3636311615
 21
94.6674341454
 31
0.0
  0
LINE
  5
420
330
1F
100
AcDbEntity
  8
OBRYS
100
AcDbLine
 10
325.3636311615
 20
94.6674341454
 30
0.0
 11
327.1313984042
 21
94.2099023157
 31
0.0
  0
LINE
  5
421
330
1F
100
AcDbEntity
  8
OBRYS
100
AcDbLine
 10
325.010077713
 20
82.9263485492
 30
0.0
 11
328.5456115399
 21
86.8409149833
 31
0.0
  0
LINE
  5
422
330
1F
100
AcDbEntity
  8
OBRYS
100
AcDbLine
 10
325.010077713
 20
77.6137565334
 30
0.0
 11
325.010077713
 21
82.9263485492
 31
0.0
  0
LINE
  5
423
330
1F
100
AcDbEntity
  8
OBRYS
100
AcDbLine
 10
315.851581361
 20
88.1482215603
 30
0.0
 11
316.9463171044
 21
86.3694467144
 31
0.0
  0
LINE
  5
424
330
1F
100
AcDbEntity
  8
OBRYS
100
AcDbLine
 10
315.8176893679
 20
103.0691101634
 30
0.0
 11
315.8176893679
 21
97.3077374953
 31
0.0
  0
LINE
  5
425
330
1F
100
AcDbEntity
  8
OBRYS
100
AcDbLine
 10
327.1313984042
 20
94.2099023157
 30
0.0
 11
327.1313984042
 21
100.1409067941
 31
0.0
  0
LINE
  5
426
330
1F
100
AcDbEntity
  8
OBRYS
100
AcDbLine
 10
326.7778449557
 20
95.0334596092
 30
0.0
 11
326.7778449557
 21
100.8879349671
 31
0.0
  0
LINE
  5
427
330
1F
100
AcDbEntity
  8
OBRYS
100
AcDbLine
 10
325.3636311615
 20
94.6674341454
 30
0.0
 11
326.7778449557
 21
95.0334596092
 31
0.0
  0
ARC
  5
428
330
1F
100
AcDbEntity
  8
OBRYS
100
AcDbCircle
 10
324.5268054978
 20
100.6624687379
 30
0.0
 40
0.8392717360972313
100
AcDbArc
 50
355.6245118005
 51
52.1119736576
  0
ARC
  5
429
330
1F
100
AcDbEntity
  8
OBRYS
100
AcDbCircle
 10
326.0134260853
 20
138.7563525281
 30
0.0
 40
1.086811236517067
100
AcDbArc
 50
111.5617422631
 51
172.3101780104
  0
LINE
  5
42A
330
1F
100
AcDbEntity
  8
OBRYS
100
AcDbLine
 10
315.8176893679
 20
130.7013488285
 30
0.0
 11
315.8176893679
 21
131.6699537878
 31
0.0
  0
ARC
  5
42B
330
1F
100
AcDbEntity
  8
OBRYS
100
AcDbCircle
 10
321.6440479892
 20
132.0444667825
 30
0.0
 40
5.838382889739708
100
AcDbArc
 50
113.1022386801
 51
183.6778603928
  0
LINE
  5
42C
330
1F
100
AcDbEntity
  8
OBRYS
100
AcDbLine
 10
319.3532238533
 20
137.4146473703
 30
0.0
 11
322.2848163901
 21
138.1733993513
 31
0.0
  0
LINE
  5
42D
330
1F
100
AcDbEntity
  8
OBRYS
100
AcDbLine
 10
322.2848163901
 20
138.1733993513
 30
0.0
 11
322.2848163901
 21
137.2583343028
 31
0.0
  0
ARC
  5
42E
330
1F
100
AcDbEntity
  8
OBRYS
100
AcDbCircle
 10
321.0740106392
 20
132.1311306377
 30
0.0
 40
3.843285528343124
100
AcDbArc
 50
124.7139818436
 51
181.4186637703
  0
LINE
  5
42F
330
1F
100
AcDbEntity
  8
OBRYS
100
AcDbLine
 10
317.2319031621
 20
132.0359792515
 30
0.0
 11
317.2319031621
 21
131.9153804136
 31
0.0
  0
LINE
  5
430
330
1F
100
AcDbEntity
  8
OBRYS
100
AcDbLine
 10
325.6140190031
 20
139.7671109792
 30
0.0
 11
326.4242921657
 21
139.9768251054
 31
0.0
  0
ARC
  5
431
330
1F
100
AcDbEntity
  8
OBRYS
100
AcDbCircle
 10
322.9146550704
 20
77.7635801968
 30
0.0
 40
3.516289398862053
100
AcDbArc
 50
293.2550265228
 51
3.5250992497
  0
LINE
  5
432
330
1F
100
AcDbEntity
  8
OBRYS
100
AcDbLine
 10
324.302972133
 20
74.5329661885
 30
0.0
 11
324.2496721747
 21
74.5191711442
 31
0.0
  0
ARC
  5
433
330
1F
100
AcDbEntity
  8
OBRYS
100
AcDbCircle
 10
323.8002582717
 20
77.5532355187
 30
0.0
 40
1.211332272170576
100
AcDbArc
 50
298.9394824131
 51
2.8638244636
  0
LINE
  5
434
330
1F
100
AcDbEntity
  8
OBRYS
100
AcDbLine
 10
325.010077713
 20
82.9263485492
 30
0.0
 11
326.4242915072
 21
83.292374013
 31
0.0
  0
LINE
  5
435
330
1F
100
AcDbEntity
  8
OBRYS
100
AcDbLine
 10
326.4242915072
 20
83.292374013
 30
0.0
 11
326.4242915072
 21
77.9797819972
 31
0.0
  0
ARC
  5
436
330
1F
100
AcDbEntity
  8
OBRYS
100
AcDbCircle
 10
316.7486309469
 20
102.6756084478
 30
0.0
 40
0.8392717360969908
100
AcDbArc
 50
355.6245118005
 51
52.1119736576
  0
LINE
  5
437
330
1F
100
AcDbEntity
  8
OBRYS
100
AcDbLine
 10
327.1313984042
 20
94.9419532432
 30
0.0
 11
326.7778449557
 21
95.0334596092
 31
0.0
  0
ARC
  5
438
330
1F
100
AcDbEntity
  8
OBRYS
100
AcDbCircle
 10
320.2298348536
 20
132.4104920758
 30
0.0
 40
5.838382889740021
100
AcDbArc
 50
113.1022386801
 51
183.6778603928
  0
LINE
  5
439
330
1F
100
AcDbEntity
  8
OBRYS
100
AcDbLine
 10
329.9598253341
 20
87.206940447
 30
0.0
 11
326.4242915072
 21
83.292374013
 31
0.0
  0
LINE
  5
43A
330
1F
100
AcDbEntity
  8
OBRYS
100
AcDbLine
 10
315.9390103884
 20
77.9603195218
 30
0.0
 11
311.5750493024
 21
76.8308432807
 31
0.0
  0
LINE
  5
43B
330
1F
100
AcDbEntity
  8
OBRYS
100
AcDbLine
 10
311.5750493024
 20
76.8308432807
 30
0.0
 11
318.107764065
 21
75.1400522839
 31
0.0
  0
LINE
  5
43C
330
1F
100
AcDbEntity
  8
OBRYS
100
AcDbLine
 10
311.5750493024
 20
76.8308432807
 30
0.0
 11
311.5750493024
 21
74.8989913114
 31
0.0
  0
LINE
  5
43D
330
1F
100
AcDbEntity
  8
OBRYS
100
AcDbLine
 10
311.5750493024
 20
74.8989913114
 30
0.0
 11
317.9596774907
 21
73.2465279404
 31
0.0
  0
LINE
  5
43E
330
1F
100
AcDbEntity
  8
OBRYS
100
AcDbLine
 10
314.4034762323
 20
128.8659010775
 30
0.0
 11
314.4034762323
 21
132.0359790811
 31
0.0
  0
LINE
  5
43F
330
1F
100
AcDbEntity
  8
OBRYS
100
AcDbLine
 10
317.9390107177
 20
137.7806726636
 30
0.0
 11
320.8706032545
 21
138.5394246446
 31
0.0
  0
LINE
  5
440
330
1F
100
AcDbEntity
  8
OBRYS
100
AcDbLine
 10
315.8284684244
 20
97.1408955101
 30
0.0
 11
317.2319031621
 21
97.5041311488
 31
0.0
  0
ARC
  5
441
330
1F
100
AcDbEntity
  8
OBRYS
100
AcDbCircle
 10
314.9808637041
 20
103.1331402775
 30
0.0
 40
0.8392717360970269
100
AcDbArc
 50
355.6245118005
 51
52.1119736576
  0
LINE
  5
442
330
1F
100
AcDbEntity
  8
OBRYS
100
AcDbLine
 10
317.2319031621
 20
97.5041311488
 30
0.0
 11
317.2319031621
 21
103.3586065067
 31
0.0
  0
LINE
  5
443
330
1F
100
AcDbEntity
  8
OBRYS
100
AcDbLine
 10
317.5854569399
 20
97.4126246977
 30
0.0
 11
317.2319031621
 21
97.5041311488
 31
0.0
  0
LINE
  5
444
330
1F
100
AcDbEntity
  8
OBRYS
100
AcDbLine
 10
355.6660575196
 20
145.8980366453
 30
0.0
 11
353.8982902769
 21
146.355568475
 31
0.0
  0
LINE
  5
445
330
1F
100
AcDbEntity
  8
OBRYS
100
AcDbLine
 10
365.2119993132
 20
143.4273651057
 30
0.0
 11
363.4442320705
 21
143.8848969354
 31
0.0
  0
ARC
  5
446
330
1F
100
AcDbEntity
  8
OBRYS
100
AcDbCircle
 10
352.6871798372
 20
146.0081774914
 30
0.0
 40
0.7417637692642781
100
AcDbArc
 50
105.8911392653
 51
134.5394808134
  0
LINE
  5
447
330
1F
100
AcDbEntity
  8
OBRYS
100
AcDbLine
 10
368.14359185
 20
144.1861170867
 30
0.0
 11
365.2119993132
 21
143.4273651057
 31
0.0
  0
ARC
  5
448
330
1F
100
AcDbEntity
  8
OBRYS
100
AcDbCircle
 10
368.7906689183
 20
141.8095321953
 30
0.0
 40
2.463100582231796
100
AcDbArc
 50
75.7635268433
 51
105.2308264186
  0
ARC
  5
449
330
1F
100
AcDbEntity
  8
OBRYS
100
AcDbCircle
 10
367.0178490991
 20
142.3054355908
 30
0.0
 40
2.424755040044087
100
AcDbArc
 50
53.3006762626
 51
105.353828148
  0
LWPOLYLINE
  5
44A
330
1F
100
AcDbEntity
  8
OBRYS
100
AcDbPolyline
 90
        3
 70
   128
 43
0.0
 10
369.865184586
 20
141.495121158
 10
369.8678293008
 20
141.4733375375
 10
369.9113590928
 20
140.7290826528
  0
LINE
  5
44B
330
1F
100
AcDbEntity
  8
OBRYS
100
AcDbLine
 10
369.9113590928
 20
140.7290826528
 30
0.0
 11
369.9113590928
 21
140.2602297065
 31
0.0
  0
LINE
  5
44C
330
1F
100
AcDbEntity
  8
OBRYS
100
AcDbLine
 10
369.9113590928
 20
136.5324877789
 30
0.0
 11
369.9113590928
 21
129.6006049281
 31
0.0
  0
ARC
  5
44D
330
1F
100
AcDbEntity
  8
OBRYS
100
AcDbCircle
 10
368.8293150193
 20
117.49841244
 30
0.0
 40
1.174175696663096
100
AcDbArc
 50
64.5776286382
 51
81.5319680811
  0
ARC
  5
44E
330
1F
100
AcDbEntity
  8
OBRYS
100
AcDbCircle
 10
369.2164892824
 20
119.3538487637
 30
0.0
 40
0.726382707838746
100
AcDbArc
 50
172.0172381888
 51
252.8436921312
  0
LINE
  5
44F
330
1F
100
AcDbEntity
  8
OBRYS
100
AcDbLine
 10
368.4971452986
 20
119.4547252782
 30
0.0
 11
368.4971452986
 21
138.6019974992
 31
0.0
  0
ARC
  5
450
330
1F
100
AcDbEntity
  8
OBRYS
100
AcDbCircle
 10
365.2839660201
 20
140.4300771869
 30
0.0
 40
3.210801850789487
100
AcDbArc
 50
2.383990872
 51
20.6034576169
  0
LINE
  5
451
330
1F
100
AcDbEntity
  8
OBRYS
100
AcDbLine
 10
363.4442320705
 20
143.8848969354
 30
0.0
 11
366.3758246073
 21
144.6436489164
 31
0.0
  0
LINE
  5
452
330
1F
100
AcDbEntity
  8
OBRYS
100
AcDbLine
 10
358.5976500564
 20
146.6567886263
 30
0.0
 11
355.6660575196
 21
145.8980366453
 31
0.0
  0
ARC
  5
453
330
1F
100
AcDbEntity
  8
OBRYS
100
AcDbCircle
 10
367.5704122428
 20
140.0560596468
 30
0.0
 40
2.69870198991499
100
AcDbArc
 50
356.8023670878
 51
42.7227081346
  0
ARC
  5
454
330
1F
100
AcDbEntity
  8
OBRYS
100
AcDbCircle
 10
359.2447271247
 20
144.2802037349
 30
0.0
 40
2.463100582233724
100
AcDbArc
 50
75.7635268434
 51
105.2308264185
  0
LINE
  5
455
330
1F
100
AcDbEntity
  8
OBRYS
100
AcDbLine
 10
370.2649125413
 20
139.9055253593
 30
0.0
 11
370.2649125413
 21
118.9971934484
 31
0.0
  0
LINE
  5
456
330
1F
100
AcDbEntity
  8
OBRYS
100
AcDbLine
 10
360.7189707477
 20
138.7142814622
 30
0.0
 11
360.7189707477
 21
121.4678649881
 31
0.0
  0
ARC
  5
457
330
1F
100
AcDbEntity
  8
OBRYS
100
AcDbCircle
 10
371.0023949262
 20
118.9007653398
 30
0.0
 40
0.7437598054148865
100
AcDbArc
 50
172.5506595722
 51
247.8070128408
  0
ARC
  5
458
330
1F
100
AcDbEntity
  8
OBRYS
100
AcDbCircle
 10
357.4719073055
 20
144.7761071304
 30
0.0
 40
2.424755040047679
100
AcDbArc
 50
53.3006762626
 51
105.353828148
  0
LINE
  5
459
330
1F
100
AcDbEntity
  8
OBRYS
100
AcDbLine
 10
360.3654172991
 20
137.2111969637
 30
0.0
 11
360.3654172991
 21
127.0589976884
 31
0.0
  0
ARC
  5
45A
330
1F
100
AcDbEntity
  8
OBRYS
100
AcDbCircle
 10
359.2655154015
 20
119.915202983
 30
0.0
 40
1.230137463420826
100
AcDbArc
 50
44.9985571126
 51
81.0788296862
  0
ARC
  5
45B
330
1F
100
AcDbEntity
  8
OBRYS
100
AcDbCircle
 10
359.6705474888
 20
121.8245203034
 30
0.0
 40
0.7263827078386591
100
AcDbArc
 50
172.0172381888
 51
252.8436921313
  0
LINE
  5
45C
330
1F
100
AcDbEntity
  8
OBRYS
100
AcDbLine
 10
358.951203505
 20
121.9253968178
 30
0.0
 11
358.951203505
 21
136.8451714999
 31
0.0
  0
LINE
  5
45D
330
1F
100
AcDbEntity
  8
OBRYS
100
AcDbLine
 10
353.8982902769
 20
146.355568475
 30
0.0
 11
356.8298828137
 21
147.114320456
 31
0.0
  0
LINE
  5
45E
330
1F
100
AcDbEntity
  8
OBRYS
100
AcDbLine
 10
352.4840771412
 20
146.7215937684
 30
0.0
 11
355.415669678
 21
147.4803457494
 31
0.0
  0
LINE
  5
45F
330
1F
100
AcDbEntity
  8
OBRYS
100
AcDbLine
 10
371.5977015876
 20
115.5608993942
 30
0.0
 11
371.9512553654
 21
115.469392943
 31
0.0
  0
LINE
  5
460
330
1F
100
AcDbEntity
  8
OBRYS
100
AcDbLine
 10
369.1719993199
 20
114.1576515671
 30
0.0
 11
369.0022212773
 21
114.0314820998
 31
0.0
  0
ARC
  5
461
330
1F
100
AcDbEntity
  8
OBRYS
100
AcDbCircle
 10
359.3948424063
 20
118.500420461
 30
0.0
 40
3.062178221587748
100
AcDbArc
 50
306.6806238941
 51
349.4558804925
  0
ARC
  5
462
330
1F
100
AcDbEntity
  8
OBRYS
100
AcDbCircle
 10
358.1053621595
 20
118.4842116623
 30
0.0
 40
2.398652042954116
100
AcDbArc
 50
304.277287875
 51
322.0546190356
  0
LINE
  5
463
330
1F
100
AcDbEntity
  8
OBRYS
100
AcDbLine
 10
371.4422903521
 20
117.4525277509
 30
0.0
 11
371.7958441299
 21
117.3610212998
 31
0.0
  0
ARC
  5
464
330
1F
100
AcDbEntity
  8
OBRYS
100
AcDbCircle
 10
368.9407841999
 20
116.0297489214
 30
0.0
 40
3.062178221586936
100
AcDbArc
 50
306.6806238941
 51
349.4558804925
  0
ARC
  5
465
330
1F
100
AcDbEntity
  8
OBRYS
100
AcDbCircle
 10
360.8835440529
 20
119.2409266802
 30
0.0
 40
1.488603242425463
100
AcDbArc
 50
23.3819893665
 51
66.1835519274
  0
ARC
  5
466
330
1F
100
AcDbEntity
  8
OBRYS
100
AcDbCircle
 10
370.4294858466
 20
116.7702551405
 30
0.0
 40
1.488603242426219
100
AcDbArc
 50
23.3819893665
 51
66.1835519273
  0
LWPOLYLINE
  5
467
330
1F
100
AcDbEntity
  8
OBRYS
100
AcDbPolyline
 90
       13
 70
   128
 43
0.0
 10
358.0420663481
 20
116.8681789327
 10
358.3895539432
 20
117.1568533373
 10
358.6983257066
 20
117.5315735066
 10
358.9543572746
 20
117.9753221604
 10
359.1460227024
 20
118.4679476393
 10
359.2646186657
 20
118.987078819
 10
359.3047582706
 20
119.5091403424
 10
359.2646186657
 20
120.0104240212
 10
359.1460227024
 20
120.4681654411
 10
358.9543572746
 20
120.8615775659
 10
358.6983257066
 20
121.172794584
 10
358.3895539432
 20
121.3876827273
 10
358.3026734833
 20
121.4263232252
  0
ARC
  5
468
330
1F
100
AcDbEntity
  8
OBRYS
100
AcDbCircle
 10
371.56135632
 20
112.5466483358
 30
0.0
 40
1.296769932894576
100
AcDbArc
 50
127.6083597305
 51
181.2850698408
  0
LINE
  5
469
330
1F
100
AcDbEntity
  8
OBRYS
100
AcDbLine
 10
368.14359185
 20
94.0901234901
 30
0.0
 11
371.6791256769
 21
98.0046899241
 31
0.0
  0
LINE
  5
46A
330
1F
100
AcDbEntity
  8
OBRYS
100
AcDbLine
 10
368.14359185
 20
88.7775314742
 30
0.0
 11
368.14359185
 21
94.0901234901
 31
0.0
  0
LINE
  5
46B
330
1F
100
AcDbEntity
  8
OBRYS
100
AcDbLine
 10
361.0725241962
 20
95.9202504681
 30
0.0
 11
361.0725241962
 21
90.6076584523
 31
0.0
  0
LINE
  5
46C
330
1F
100
AcDbEntity
  8
OBRYS
100
AcDbLine
 10
357.5369903693
 20
101.6649438802
 30
0.0
 11
361.0725241962
 21
95.9202504681
 31
0.0
  0
LINE
  5
46D
330
1F
100
AcDbEntity
  8
OBRYS
100
AcDbLine
 10
358.951203505
 20
115.44576928
 30
0.0
 11
358.951203505
 21
108.3018806259
 31
0.0
  0
LINE
  5
46E
330
1F
100
AcDbEntity
  8
OBRYS
100
AcDbLine
 10
358.951203505
 20
108.3018806259
 30
0.0
 11
360.7189707477
 21
107.8443487962
 31
0.0
  0
LINE
  5
46F
330
1F
100
AcDbEntity
  8
OBRYS
100
AcDbLine
 10
360.7189707477
 20
107.8443487962
 30
0.0
 11
360.7189707477
 21
114.9882374503
 31
0.0
  0
LINE
  5
470
330
1F
100
AcDbEntity
  8
OBRYS
100
AcDbLine
 10
368.4971452986
 20
112.9750977404
 30
0.0
 11
368.4971452986
 21
105.8312090863
 31
0.0
  0
LINE
  5
471
330
1F
100
AcDbEntity
  8
OBRYS
100
AcDbLine
 10
368.4971452986
 20
105.8312090863
 30
0.0
 11
370.2649125413
 21
105.3736772566
 31
0.0
  0
LINE
  5
472
330
1F
100
AcDbEntity
  8
OBRYS
100
AcDbLine
 10
370.2649125413
 20
105.3736772566
 30
0.0
 11
370.2649125413
 21
112.5175659107
 31
0.0
  0
LINE
  5
473
330
1F
100
AcDbEntity
  8
OBRYS
100
AcDbLine
 10
357.5369903693
 20
101.6649438802
 30
0.0
 11
357.5369903693
 21
115.8117945734
 31
0.0
  0
ARC
  5
474
330
1F
100
AcDbEntity
  8
OBRYS
100
AcDbCircle
 10
361.4564531326
 20
121.3714368794
 30
0.0
 40
0.7437598054149128
100
AcDbArc
 50
172.5506595722
 51
247.8070128408
  0
ARC
  5
475
330
1F
100
AcDbEntity
  8
OBRYS
100
AcDbCircle
 10
356.0627467464
 20
145.103760858
 30
0.0
 40
2.463100582231429
100
AcDbArc
 50
75.7635268433
 51
105.2308264186
  0
ARC
  5
476
330
1F
100
AcDbEntity
  8
OBRYS
100
AcDbCircle
 10
371.3160974938
 20
112.129301587
 30
0.0
 40
1.404738802867627
100
AcDbArc
 50
143.8085336597
 51
180.0433391073
  0
LINE
  5
477
330
1F
100
AcDbEntity
  8
OBRYS
100
AcDbLine
 10
368.4971452986
 20
105.8312090863
 30
0.0
 11
369.9113590928
 21
106.1972345501
 31
0.0
  0
ARC
  5
478
330
1F
100
AcDbEntity
  8
OBRYS
100
AcDbCircle
 10
369.7935890773
 20
113.0041801656
 30
0.0
 40
1.29676993289497
100
AcDbArc
 50
127.6083597305
 51
181.2850698408
  0
LINE
  5
479
330
1F
100
AcDbEntity
  8
OBRYS
100
AcDbLine
 10
369.9113590928
 20
106.1972345501
 30
0.0
 11
369.9113590928
 21
112.1282390285
 31
0.0
  0
ARC
  5
47A
330
1F
100
AcDbEntity
  8
OBRYS
100
AcDbCircle
 10
362.0154145264
 20
115.0173198755
 30
0.0
 40
1.296769932894697
100
AcDbArc
 50
127.6083597305
 51
181.2850698408
  0
LINE
  5
47B
330
1F
100
AcDbEntity
  8
OBRYS
100
AcDbLine
 10
370.2649125413
 20
106.1057281841
 30
0.0
 11
369.9113590928
 21
106.1972345501
 31
0.0
  0
LINE
  5
47C
330
1F
100
AcDbEntity
  8
OBRYS
100
AcDbLine
 10
368.14359185
 20
94.0901234901
 30
0.0
 11
369.5578056442
 21
94.4561489538
 31
0.0
  0
LINE
  5
47D
330
1F
100
AcDbEntity
  8
OBRYS
100
AcDbLine
 10
373.0933394711
 20
98.3707153879
 30
0.0
 11
369.5578056442
 21
94.4561489538
 31
0.0
  0
LINE
  5
47E
330
1F
100
AcDbEntity
  8
OBRYS
100
AcDbLine
 10
357.5369903693
 20
122.2914221111
 30
0.0
 11
357.5369903693
 21
136.479145834
 31
0.0
  0
LWPOLYLINE
  5
47F
330
1F
100
AcDbEntity
  8
OBRYS
100
AcDbPolyline
 90
        9
 70
   128
 43
0.0
 10
369.5578056442
 20
89.143556938
 10
369.5713927345
 20
88.9586313294
 10
369.6116298039
 20
88.7878449306
 10
369.6769732242
 20
88.6377610363
 10
369.7649126236
 20
88.5141475792
 10
369.8720657176
 20
88.4217551863
 10
369.9943152859
 20
88.3641349307
 10
370.1269619549
 20
88.3434997567
 10
370.2649112242
 20
88.3606433444
  0
LINE
  5
480
330
1F
100
AcDbEntity
  8
OBRYS
100
AcDbLine
 10
370.2649112242
 20
88.3606433444
 30
0.0
 11
372.3562931651
 21
88.9019328213
 31
0.0
  0
LINE
  5
481
330
1F
100
AcDbEntity
  8
OBRYS
100
AcDbLine
 10
372.3644459461
 20
86.9721909471
 30
0.0
 11
370.2649112242
 21
86.4287913752
 31
0.0
  0
LWPOLYLINE
  5
482
330
1F
100
AcDbEntity
  8
OBRYS
100
AcDbPolyline
 90
        9
 70
   128
 43
0.0
 10
370.2649112242
 20
86.4287913752
 10
369.8510634162
 20
86.3773606122
 10
369.4531181409
 20
86.4392647706
 10
369.086369436
 20
86.6121273364
 10
368.7649114712
 20
86.8893030569
 10
368.5010985413
 20
87.2601429926
 10
368.3050669634
 20
87.7103925353
 10
368.1843518038
 20
88.2227525083
 10
368.14359185
 20
88.7775314742
  0
LINE
  5
483
330
1F
100
AcDbEntity
  8
OBRYS
100
AcDbLine
 10
369.5578056442
 20
94.4561489538
 30
0.0
 11
369.5578056442
 21
89.143556938
 31
0.0
  0
ARC
  5
484
330
1F
100
AcDbEntity
  8
OBRYS
100
AcDbCircle
 10
363.1911405274
 20
90.2638109586
 30
0.0
 40
2.1463378712722
100
AcDbArc
 50
170.7813821947
 51
249.5763595779
  0
ARC
  5
485
330
1F
100
AcDbEntity
  8
OBRYS
100
AcDbCircle
 10
358.2744727542
 20
122.1949940025
 30
0.0
 40
0.7437598054148172
100
AcDbArc
 50
172.5506595722
 51
247.8070128408
  0
ARC
  5
486
330
1F
100
AcDbEntity
  8
OBRYS
100
AcDbCircle
 10
361.7701557001
 20
114.5999731266
 30
0.0
 40
1.40473880286626
100
AcDbArc
 50
143.8085336597
 51
180.0433391073
  0
LINE
  5
487
330
1F
100
AcDbEntity
  8
OBRYS
100
AcDbLine
 10
358.951203505
 20
108.3018806259
 30
0.0
 11
360.3654172991
 21
108.6679060897
 31
0.0
  0
ARC
  5
488
330
1F
100
AcDbEntity
  8
OBRYS
100
AcDbCircle
 10
360.2476472837
 20
115.4748517052
 30
0.0
 40
1.29676993289481
100
AcDbArc
 50
127.6083597305
 51
181.2850698408
  0
LINE
  5
489
330
1F
100
AcDbEntity
  8
OBRYS
100
AcDbLine
 10
360.3654172991
 20
108.6679060897
 30
0.0
 11
360.3654172991
 21
114.5989105681
 31
0.0
  0
ARC
  5
48A
330
1F
100
AcDbEntity
  8
OBRYS
100
AcDbCircle
 10
358.833434148
 20
115.8408769985
 30
0.0
 40
1.296769932894525
100
AcDbArc
 50
127.6083597305
 51
181.2850698408
  0
LINE
  5
48B
330
1F
100
AcDbEntity
  8
OBRYS
100
AcDbLine
 10
371.5578054796
 20
90.9542213981
 30
0.0
 11
372.2178369091
 21
90.7833926938
 31
0.0
  0
LINE
  5
48C
330
1F
100
AcDbEntity
  8
OBRYS
100
AcDbLine
 10
360.718971077
 20
108.5763996385
 30
0.0
 11
360.3654172991
 21
108.6679060897
 31
0.0
  0
LWPOLYLINE
  5
48D
330
1F
100
AcDbEntity
  8
OBRYS
100
AcDbPolyline
 90
       19
 70
   128
 43
0.0
 10
318.9155052063
 20
85.4683275646
 10
318.5870635415
 20
85.430362686
 10
318.1154237608
 20
85.4044526838
 10
317.6335305243
 20
85.4085083955
 10
317.1693922241
 20
85.4422948215
 10
316.7499803734
 20
85.5038477243
 10
316.3996718927
 20
85.5895904485
 10
316.1388231231
 20
85.6945393676
 10
315.9825952512
 20
85.8125956139
 10
315.9400658706
 20
85.9368977436
 10
316.0137086804
 20
86.0602222924
 10
316.1992428118
 20
86.1754018406
 10
316.4858878091
 20
86.2757430788
 10
316.856981426
 20
86.3554136952
 10
317.2909578939
 20
86.4097836889
 10
317.7625976746
 20
86.4356936911
 10
318.2444882769
 20
86.4316372976
 10
318.7086265772
 20
86.3978508716
 10
318.9853347758
 20
86.361220872
  0
LWPOLYLINE
  5
48E
330
1F
100
AcDbEntity
  8
OBRYS
100
AcDbPolyline
 90
        3
 70
   128
 43
0.0
 10
331.6170018805
 20
130.3112323323
 10
330.8583428022
 20
130.3094255274
 10
330.2275217009
 20
130.2201481687
  0
ARC
  5
48F
330
1F
100
AcDbEntity
  8
OBRYS
100
AcDbCircle
 10
336.2023512834
 20
118.8961694183
 30
0.0
 40
13.30273441238238
100
AcDbArc
 50
132.9912247331
 51
183.011016057
  0
ARC
  5
490
330
1F
100
AcDbEntity
  8
OBRYS
100
AcDbCircle
 10
334.3985753019
 20
123.9169040869
 30
0.0
 40
6.973133041116237
100
AcDbArc
 50
113.5093463916
 51
129.0841902639
  0
ARC
  5
491
330
1F
100
AcDbEntity
  8
OBRYS
100
AcDbCircle
 10
334.889359294
 20
122.305311588
 30
0.0
 40
8.442975685883136
100
AcDbArc
 50
156.7608165015
 51
186.6964886337
  0
LINE
  5
492
330
1F
100
AcDbEntity
  8
OBRYS
100
AcDbLine
 10
327.1262380495
 20
113.1087276315
 30
0.0
 11
326.5039832952
 21
121.3207772865
 31
0.0
  0
LINE
  5
493
330
1F
100
AcDbEntity
  8
OBRYS
100
AcDbLine
 10
327.1313984042
 20
112.9706728869
 30
0.0
 11
327.1262380495
 21
113.1087276315
 31
0.0
  0
LWPOLYLINE
  5
494
330
1F
100
AcDbEntity
  8
OBRYS
100
AcDbPolyline
 90
        9
 70
   128
 43
0.0
 10
324.3483906306
 20
105.1703332908
 10
324.3697169359
 20
105.534697459
 10
324.476264169
 20
105.8915669431
 10
324.6561758944
 20
106.2012240604
 10
324.8894297249
 20
106.4292050289
 10
325.1500632019
 20
106.5501361774
 10
325.4090687569
 20
106.5505583418
 10
325.6376205797
 20
106.4304243626
 10
325.7482139102
 20
106.3070940267
  0
LINE
  5
495
330
1F
100
AcDbEntity
  8
OBRYS
100
AcDbLine
 10
325.3358412418
 20
89.8863257318
 30
0.0
 11
324.3483906306
 21
105.1703332908
 31
0.0
  0
LINE
  5
496
330
1F
100
AcDbEntity
  8
OBRYS
100
AcDbLine
 10
324.2563419135
 20
74.6584393993
 30
0.0
 11
325.3358412418
 21
89.8863257318
 31
0.0
  0
LWPOLYLINE
  5
497
330
1F
100
AcDbEntity
  8
OBRYS
100
AcDbPolyline
 90
        9
 70
   128
 43
0.0
 10
325.8755685155
 20
72.7264172815
 10
325.5424819717
 20
72.671798091
 10
325.221839285
 20
72.7160078764
 10
324.9281758496
 20
72.857040513
 10
324.6748021672
 20
73.0884995135
 10
324.4732032541
 20
73.3999013737
 10
324.332519708
 20
73.7771259951
 10
324.2591236055
 20
74.2030733683
 10
324.2563419135
 20
74.6584393993
  0
LWPOLYLINE
  5
498
330
1F
100
AcDbEntity
  8
OBRYS
100
AcDbPolyline
 90
       17
 70
   128
 43
0.0
 10
331.4067378387
 20
72.6286455671
 10
331.1621399205
 20
72.0020130333
 10
330.8532443506
 20
71.4211381012
 10
330.4884093761
 20
70.9017390444
 10
330.0775078962
 20
70.4578750953
 10
329.6316587763
 20
70.1015530525
 10
329.1629265519
 20
69.842415665
 10
328.6839961072
 20
69.6874775157
 10
328.2078289152
 20
69.6409316973
 10
327.7473074237
 20
69.7040361822
 10
327.3148952459
 20
69.8750834473
 10
326.9222934008
 20
70.1494446418
 10
326.5801268453
 20
70.5196935614
 10
326.2976560324
 20
70.9758162644
 10
326.0825200784
 20
71.5054684502
 10
325.9405431508
 20
72.0943103728
 10
325.8755685155
 20
72.7264172815
  0
LINE
  5
499
330
1F
100
AcDbEntity
  8
OBRYS
100
AcDbLine
 10
331.8734904784
 20
72.7836523954
 30
0.0
 11
331.4067378387
 21
72.6286455671
 31
0.0
  0
LINE
  5
49A
330
1F
100
AcDbEntity
  8
OBRYS
100
AcDbLine
 10
331.9673119973
 20
70.4186100708
 30
0.0
 11
331.8734904784
 21
72.7836523954
 31
0.0
  0
LINE
  5
49B
330
1F
100
AcDbEntity
  8
OBRYS
100
AcDbLine
 10
322.9179819099
 20
118.1974039406
 30
0.0
 11
318.8404244646
 21
66.0592707258
 31
0.0
  0
LINE
  5
49C
330
1F
100
AcDbEntity
  8
OBRYS
100
AcDbLine
 10
321.503768445
 20
118.5634293191
 30
0.0
 11
322.9179819099
 21
118.1974039406
 31
0.0
  0
ARC
  5
49D
330
1F
100
AcDbEntity
  8
OBRYS
100
AcDbCircle
 10
333.8864225567
 20
119.5305453119
 30
0.0
 40
12.42036377059986
100
AcDbArc
 50
122.2787406474
 51
184.465876575
  0
LINE
  5
49E
330
1F
100
AcDbEntity
  8
OBRYS
100
AcDbLine
 10
330.4014251955
 20
130.6258467292
 30
0.0
 11
331.6170018805
 21
130.3112323323
 31
0.0
  0
LINE
  5
49F
330
1F
100
AcDbEntity
  8
OBRYS
100
AcDbLine
 10
317.4262109997
 20
66.4252961043
 30
0.0
 11
318.8404244646
 21
66.0592707258
 31
0.0
  0
LINE
  5
4A0
330
1F
100
AcDbEntity
  8
OBRYS
100
AcDbLine
 10
321.503768445
 20
118.5634293191
 30
0.0
 11
317.4262109997
 21
66.4252961043
 31
0.0
  0
LINE
  5
4A1
330
1F
100
AcDbEntity
  8
OBRYS
100
AcDbLine
 10
324.9386786467
 20
103.5446529687
 30
0.0
 11
325.1654392284
 21
102.1611751685
 31
0.0
  0
LINE
  5
4A2
330
1F
100
AcDbEntity
  8
OBRYS
100
AcDbLine
 10
313.7255938941
 20
120.576569029
 30
0.0
 11
310.1428904997
 21
74.7659486401
 31
0.0
  0
ARC
  5
4A3
330
1F
100
AcDbEntity
  8
OBRYS
100
AcDbCircle
 10
327.2707620236
 20
121.197976148
 30
0.0
 40
13.55941468000006
100
AcDbArc
 50
135.5839140369
 51
182.6266974485
  0
ARC
  5
4A4
330
1F
100
AcDbEntity
  8
OBRYS
100
AcDbCircle
 10
325.5988734639
 20
124.6843754883
 30
0.0
 40
8.34554301782101
100
AcDbArc
 50
163.7813968919
 51
186.7743335925
  0
LINE
  5
4A5
330
1F
100
AcDbEntity
  8
OBRYS
100
AcDbLine
 10
317.5855945757
 20
120.0839085254
 30
0.0
 11
317.3115952793
 21
123.699942375
 31
0.0
  0
LWPOLYLINE
  5
4A6
330
1F
100
AcDbEntity
  8
OBRYS
100
AcDbPolyline
 90
        8
 70
   128
 43
0.0
 10
315.1560026148
 20
107.5494983792
 10
315.1773289201
 20
107.9138625474
 10
315.2838761532
 20
108.2707320316
 10
315.4637878786
 20
108.5803891488
 10
315.6970417091
 20
108.8083701174
 10
315.9576751861
 20
108.9293012658
 10
316.2166807411
 20
108.9297234303
 10
316.255015934
 20
108.9187411199
  0
LINE
  5
4A7
330
1F
100
AcDbEntity
  8
OBRYS
100
AcDbLine
 10
316.143453226
 20
92.2654908202
 30
0.0
 11
315.1560026148
 21
107.5494983792
 31
0.0
  0
LINE
  5
4A8
330
1F
100
AcDbEntity
  8
OBRYS
100
AcDbLine
 10
315.1142324537
 20
77.7468522773
 30
0.0
 11
316.143453226
 21
92.2654908202
 31
0.0
  0
ARC
  5
4A9
330
1F
100
AcDbEntity
  8
OBRYS
100
AcDbCircle
 10
325.0454449557
 20
121.7823077064
 30
0.0
 40
12.76172112342443
100
AcDbArc
 50
125.3856668999
 51
183.7727519496
  0
LINE
  5
4AA
330
1F
100
AcDbEntity
  8
OBRYS
100
AcDbLine
 10
313.7255938941
 20
120.576569029
 30
0.0
 11
312.3113800999
 21
120.9425944928
 31
0.0
  0
ARC
  5
4AB
330
1F
100
AcDbEntity
  8
OBRYS
100
AcDbCircle
 10
325.614527705
 20
102.1835827928
 30
0.0
 40
0.4496471521973787
100
AcDbArc
 50
182.8564492867
 51
251.0125569108
  0
LINE
  5
4AC
330
1F
100
AcDbEntity
  8
OBRYS
100
AcDbLine
 10
312.3113800999
 20
120.9425944928
 30
0.0
 11
308.6666839597
 21
74.3392820397
 31
0.0
  0
ARC
  5
4AD
330
1F
100
AcDbEntity
  8
OBRYS
100
AcDbCircle
 10
330.1772420212
 20
70.1263063573
 30
0.0
 40
1.813778371367701
100
AcDbArc
 50
296.5323610378
 51
9.2740792526
  0
ELLIPSE
  5
4AE
330
1F
100
AcDbEntity
  8
OBRYS
100
AcDbEllipse
 10
317.072657459
 20
66.5168035841
 30
0.0
 11
-0.2536690816638156
 21
2.518340011784943
 31
0.0
210
0.0
220
0.0
230
1.0
 40
0.6989580889
 41
2.889065187180832
 42
4.459861513975733
  0
ELLIPSE
  5
4AF
330
1F
100
AcDbEntity
  8
OBRYS
100
AcDbEllipse
 10
317.072657459
 20
66.5168035841
 30
0.0
 11
0.3212876365623742
 21
0.5522816591986556
 31
0.0
210
0.0
220
0.0
230
1.0
 40
0.5569988614
 41
3.296669020934282
 42
4.867465347729437
  0
LINE
  5
4B0
330
1F
100
AcDbEntity
  8
OBRYS
100
AcDbLine
 10
316.8027385966
 20
65.9435073758
 30
0.0
 11
309.7316709428
 21
67.7736343538
 31
0.0
  0
LINE
  5
4B1
330
1F
100
AcDbEntity
  8
OBRYS
100
AcDbLine
 10
328.6442363178
 20
70.8062185027
 30
0.0
 11
326.0953805883
 21
71.4659109087
 31
0.0
  0
LINE
  5
4B2
330
1F
100
AcDbEntity
  8
OBRYS
100
AcDbLine
 10
316.8784870201
 20
64.0340348722
 30
0.0
 11
309.8074193662
 21
65.8641618502
 31
0.0
  0
LINE
  5
4B3
330
1F
100
AcDbEntity
  8
OBRYS
100
AcDbLine
 10
324.7346095331
 20
73.0217191958
 30
0.0
 11
325.8755685155
 21
72.7264172815
 31
0.0
  0
LINE
  5
4B4
330
1F
100
AcDbEntity
  8
OBRYS
100
AcDbLine
 10
329.9925243738
 20
72.9946709457
 30
0.0
 11
331.4067378387
 21
72.6286455671
 31
0.0
  0
ARC
  5
4B5
330
1F
100
AcDbEntity
  8
OBRYS
100
AcDbCircle
 10
326.1293483584
 20
73.8662428001
 30
0.0
 40
3.960273528832326
100
AcDbArc
 50
283.9117002532
 51
347.2863444684
  0
LINE
  5
4B6
330
1F
100
AcDbEntity
  8
OBRYS
100
AcDbLine
 10
315.7462903016
 20
105.9238181424
 30
0.0
 11
315.9730508833
 21
104.5403403422
 31
0.0
  0
ARC
  5
4B7
330
1F
100
AcDbEntity
  8
OBRYS
100
AcDbCircle
 10
316.4221393599
 20
104.5627479664
 30
0.0
 40
0.4496471521975635
100
AcDbArc
 50
182.8564492867
 51
251.0125569108
  0
ELLIPSE
  5
4B8
330
1F
100
AcDbEntity
  8
OBRYS
100
AcDbEllipse
 10
310.0015896472
 20
68.3469306031
 30
0.0
 11
0.3212876365624311
 21
0.5522816591986839
 31
0.0
210
0.0
220
0.0
230
1.0
 40
0.5569988614
 41
2.311060444740359
 42
3.296669020934651
  0
ELLIPSE
  5
4B9
330
1F
100
AcDbEntity
  8
OBRYS
100
AcDbEllipse
 10
310.0015896472
 20
68.3469306031
 30
0.0
 11
-0.2536690816638157
 21
2.518340011784958
 31
0.0
210
0.0
220
0.0
230
1.0
 40
0.6989580889
 41
1.43372523522561
 42
2.889065187180799
  0
LINE
  5
4BA
330
1F
100
AcDbEntity
  8
OBRYS
100
AcDbLine
 10
330.4592770134
 20
73.149677774
 30
0.0
 11
331.8734904784
 21
72.7836523954
 31
0.0
  0
LINE
  5
4BB
330
1F
100
AcDbEntity
  8
OBRYS
100
AcDbLine
 10
330.4592770134
 20
73.149677774
 30
0.0
 11
329.9925243738
 21
72.9946709457
 31
0.0
  0
LINE
  5
4BC
330
1F
100
AcDbEntity
  8
OBRYS
100
AcDbLine
 10
366.2300646708
 20
81.6758595369
 30
0.0
 11
366.6968173105
 21
81.7624616536
 31
0.0
  0
LWPOLYLINE
  5
4BD
330
1F
100
AcDbEntity
  8
OBRYS
100
AcDbPolyline
 90
       17
 70
   128
 43
0.0
 10
366.6968173105
 20
81.7624616536
 10
366.9414152287
 20
81.262442319
 10
367.2503107985
 20
80.8414634998
 10
367.6151457731
 20
80.5109169225
 10
368.026047253
 20
80.2797512307
 10
368.4718963729
 20
80.1542176747
 10
368.9406285973
 20
80.1377139407
 10
369.419559042
 20
80.2306884322
 10
369.895726234
 20
80.4306248896
 10
370.3562477255
 20
80.7321128399
 10
370.7886599032
 20
81.1269931189
 10
371.1812617484
 20
81.6045799827
 10
371.5234283038
 20
82.1519473447
 10
371.8058991167
 20
82.7542876998
 10
372.0210350708
 20
83.3953024499
 10
372.1630119983
 20
84.0576370381
 10
372.2279866337
 20
84.723377293
  0
ARC
  5
4BE
330
1F
100
AcDbEntity
  8
OBRYS
100
AcDbCircle
 10
371.2624246891
 20
87.1460953031
 30
0.0
 40
2.608039958569547
100
AcDbArc
 50
291.729502581
 51
7.6564660013
  0
LINE
  5
4BF
330
1F
100
AcDbEntity
  8
OBRYS
100
AcDbLine
 10
373.8472132357
 20
87.4935727767
 30
0.0
 11
373.0502716481
 21
98.3230311672
 31
0.0
  0
LINE
  5
4C0
330
1F
100
AcDbEntity
  8
OBRYS
100
AcDbLine
 10
373.0933404589
 20
107.3713374912
 30
0.0
 11
373.3934734355
 21
112.1722680527
 31
0.0
  0
LINE
  5
4C1
330
1F
100
AcDbEntity
  8
OBRYS
100
AcDbLine
 10
371.8368586111
 20
115.4990002367
 30
0.0
 11
371.7285175029
 21
114.7819189873
 31
0.0
  0
LINE
  5
4C2
330
1F
100
AcDbEntity
  8
OBRYS
100
AcDbLine
 10
370.5657215139
 20
113.3859734899
 30
0.0
 11
370.5740718582
 21
113.460503579
 31
0.0
  0
LINE
  5
4C3
330
1F
100
AcDbEntity
  8
OBRYS
100
AcDbLine
 10
370.5740718582
 20
113.460503579
 30
0.0
 11
370.7480421951
 21
118.2052250086
 31
0.0
  0
LWPOLYLINE
  5
4C4
330
1F
100
AcDbEntity
  8
OBRYS
100
AcDbPolyline
 90
        3
 70
   128
 43
0.0
 10
370.2649115535
 20
137.9345092606
 10
370.0261154124
 20
138.1474134191
 10
369.5522307357
 20
138.4636992698
  0
ARC
  5
4C5
330
1F
100
AcDbEntity
  8
OBRYS
100
AcDbCircle
 10
366.9050607472
 20
134.9845987223
 30
0.0
 40
4.371687267836002
100
AcDbArc
 50
52.7333032623
 51
95.49341434
  0
ARC
  5
4C6
330
1F
100
AcDbEntity
  8
OBRYS
100
AcDbCircle
 10
369.4739640461
 20
134.6527696777
 30
0.0
 40
5.555107132390487
100
AcDbArc
 50
81.8959707629
 51
122.5324610424
  0
ARC
  5
4C7
330
1F
100
AcDbEntity
  8
OBRYS
100
AcDbCircle
 10
365.7200348995
 20
132.5704179323
 30
0.0
 40
9.503188979105467
100
AcDbArc
 50
354.8980920933
 51
39.1153896636
  0
LINE
  5
4C8
330
1F
100
AcDbEntity
  8
OBRYS
100
AcDbLine
 10
375.1855732393
 20
131.7253234342
 30
0.0
 11
379.2631306846
 21
81.6978892681
 31
0.0
  0
LINE
  5
4C9
330
1F
100
AcDbEntity
  8
OBRYS
100
AcDbLine
 10
366.1362431519
 20
79.2622516203
 30
0.0
 11
366.2300646708
 21
81.6758595369
 31
0.0
  0
LINE
  5
4CA
330
1F
100
AcDbEntity
  8
OBRYS
100
AcDbLine
 10
366.1345915222
 20
139.4273021449
 30
0.0
 11
366.4865532687
 21
139.3362077418
 31
0.0
  0
ARC
  5
4CB
330
1F
100
AcDbEntity
  8
OBRYS
100
AcDbCircle
 10
368.035591765
 20
135.6513455353
 30
0.0
 40
4.931964174613658
100
AcDbArc
 50
75.8621943934
 51
104.9962310719
  0
LINE
  5
4CC
330
1F
100
AcDbEntity
  8
OBRYS
100
AcDbLine
 10
368.1380172708
 20
138.8297246484
 30
0.0
 11
369.5522307357
 21
138.4636992698
 31
0.0
  0
ARC
  5
4CD
330
1F
100
AcDbEntity
  8
OBRYS
100
AcDbCircle
 10
365.402252384
 20
135.1977506366
 30
0.0
 40
4.547047914643513
100
AcDbArc
 50
53.0113095702
 51
65.6592297814
  0
LINE
  5
4CE
330
1F
100
AcDbEntity
  8
OBRYS
100
AcDbLine
 10
370.1853583891
 20
133.3584712502
 30
0.0
 11
370.2649125413
 21
133.3378811205
 31
0.0
  0
ARC
  5
4CF
330
1F
100
AcDbEntity
  8
OBRYS
100
AcDbCircle
 10
365.0141291637
 20
134.5420829392
 30
0.0
 40
5.304955073529824
100
AcDbArc
 50
347.1079791514
 51
53.9236841244
  0
LINE
  5
4D0
330
1F
100
AcDbEntity
  8
OBRYS
100
AcDbLine
 10
356.943855136
 20
81.6414167088
 30
0.0
 11
357.037676655
 21
84.0550246254
 31
0.0
  0
LINE
  5
4D1
330
1F
100
AcDbEntity
  8
OBRYS
100
AcDbLine
 10
357.037676655
 20
84.0550246254
 30
0.0
 11
357.5044292947
 21
84.141626742
 31
0.0
  0
LWPOLYLINE
  5
4D2
330
1F
100
AcDbEntity
  8
OBRYS
100
AcDbPolyline
 90
       16
 70
   128
 43
0.0
 10
357.5044292947
 20
84.141626742
 10
357.7490272129
 20
83.6416074075
 10
358.0579227827
 20
83.2206285883
 10
358.4227577572
 20
82.8900820109
 10
358.8336592372
 20
82.6589163192
 10
359.2795083571
 20
82.5333827632
 10
359.7482405815
 20
82.5168790292
 10
360.2271710262
 20
82.6098535207
 10
360.7033382182
 20
82.8097899781
 10
361.1638597097
 20
83.1112779283
 10
361.5962718874
 20
83.5061582074
 10
361.9888737326
 20
83.9837450712
 10
362.331040288
 20
84.5311124331
 10
362.6135111009
 20
85.1334527882
 10
362.828647055
 20
85.7744675384
 10
362.8627043427
 20
85.9044244025
  0
LINE
  5
4D3
330
1F
100
AcDbEntity
  8
OBRYS
100
AcDbLine
 10
361.3938247689
 20
116.170791277
 30
0.0
 11
361.5551997835
 21
120.5720297656
 31
0.0
  0
LINE
  5
4D4
330
1F
100
AcDbEntity
  8
OBRYS
100
AcDbLine
 10
369.5631036348
 20
124.8243188326
 30
0.0
 11
370.2649128706
 21
124.6426772363
 31
0.0
  0
LINE
  5
4D5
330
1F
100
AcDbEntity
  8
OBRYS
100
AcDbLine
 10
369.5631036348
 20
124.8243188326
 30
0.0
 11
370.1853583891
 21
133.3584712502
 31
0.0
  0
LINE
  5
4D6
330
1F
100
AcDbEntity
  8
OBRYS
100
AcDbLine
 10
369.1598583933
 20
113.8265289575
 30
0.0
 11
370.5740718582
 21
113.460503579
 31
0.0
  0
LINE
  5
4D7
330
1F
100
AcDbEntity
  8
OBRYS
100
AcDbLine
 10
369.1598583933
 20
113.8265289575
 30
0.0
 11
369.5631036348
 21
124.8243188326
 31
0.0
  0
ARC
  5
4D8
330
1F
100
AcDbEntity
  8
OBRYS
100
AcDbCircle
 10
369.6933492222
 20
113.6555718926
 30
0.0
 40
0.5602131581660065
100
AcDbArc
 50
162.2319502074
 51
245.6815717064
  0
LINE
  5
4D9
330
1F
100
AcDbEntity
  8
OBRYS
100
AcDbLine
 10
360.718971077
 20
127.1133487759
 30
0.0
 11
360.370715619
 21
127.203483921
 31
0.0
  0
LINE
  5
4DA
330
1F
100
AcDbEntity
  8
OBRYS
100
AcDbLine
 10
360.370715619
 20
127.203483921
 30
0.0
 11
360.718971077
 21
131.9797700166
 31
0.0
  0
LINE
  5
4DB
330
1F
100
AcDbEntity
  8
OBRYS
100
AcDbLine
 10
364.8158512059
 20
82.0418849155
 30
0.0
 11
366.2300646708
 21
81.6758595369
 31
0.0
  0
LINE
  5
4DC
330
1F
100
AcDbEntity
  8
OBRYS
100
AcDbLine
 10
364.722029687
 20
79.6282769989
 30
0.0
 11
364.8158512059
 21
82.0418849155
 31
0.0
  0
LINE
  5
4DD
330
1F
100
AcDbEntity
  8
OBRYS
100
AcDbLine
 10
365.2826038456
 20
82.1284870321
 30
0.0
 11
366.6968173105
 21
81.7624616536
 31
0.0
  0
LINE
  5
4DE
330
1F
100
AcDbEntity
  8
OBRYS
100
AcDbLine
 10
364.8158512059
 20
82.0418849155
 30
0.0
 11
365.2826038456
 21
82.1284870321
 31
0.0
  0
LINE
  5
4DF
330
1F
100
AcDbEntity
  8
OBRYS
100
AcDbLine
 10
370.8137731688
 20
85.0894026715
 30
0.0
 11
372.2279866337
 21
84.723377293
 31
0.0
  0
ARC
  5
4E0
330
1F
100
AcDbEntity
  8
OBRYS
100
AcDbCircle
 10
366.2671801935
 20
84.8613575472
 30
0.0
 40
4.552308454145246
100
AcDbArc
 50
287.1948374928
 51
2.8713990331
  0
LWPOLYLINE
  5
4E1
330
1F
100
AcDbEntity
  8
OBRYS
100
AcDbPolyline
 90
        9
 70
   128
 43
0.0
 10
366.1362431519
 20
79.2622516203
 10
366.0838039112
 20
78.7958311694
 10
365.9654456824
 20
78.364917416
 10
365.7857163739
 20
77.9860700834
 10
365.5515234589
 20
77.6738471468
 10
365.2718672652
 20
77.4402527886
 10
364.9574929343
 20
77.2942574601
 10
364.6204837702
 20
77.2414730712
 10
364.273790709
 20
77.2839263004
  0
LWPOLYLINE
  5
4E2
330
1F
100
AcDbEntity
  8
OBRYS
100
AcDbPolyline
 90
        9
 70
   128
 43
0.0
 10
364.722029687
 20
79.6282769989
 10
364.7115417071
 20
79.5349929428
 10
364.6878703248
 20
79.4488073816
 10
364.6519243314
 20
79.3730385325
 10
364.6050866703
 20
79.3105971307
 10
364.5491541803
 20
79.2638764617
 10
364.486280302
 20
79.2346784055
 10
364.4188789301
 20
79.2241208251
 10
364.3495391325
 20
79.2326126716
  0
ELLIPSE
  5
4E3
330
1F
100
AcDbEntity
  8
OBRYS
100
AcDbEllipse
 10
377.4953639429
 20
82.1554221542
 30
0.0
 11
-0.9272349761126293
 21
2.350787442373374
 31
0.0
210
0.0
220
0.0
230
1.0
 40
0.6455467098
 41
3.016595476897216
 42
4.27331298905464
  0
LINE
  5
4E4
330
1F
100
AcDbEntity
  8
OBRYS
100
AcDbLine
 10
361.0751537644
 20
115.9190044895
 30
0.0
 11
359.9674703775
 21
116.205694046
 31
0.0
  0
LINE
  5
4E5
330
1F
100
AcDbEntity
  8
OBRYS
100
AcDbLine
 10
359.9674703775
 20
116.205694046
 30
0.0
 11
360.370715619
 21
127.203483921
 31
0.0
  0
LINE
  5
4E6
330
1F
100
AcDbEntity
  8
OBRYS
100
AcDbLine
 10
372.4329997708
 20
87.8595981553
 30
0.0
 11
371.7675142037
 21
96.9027516871
 31
0.0
  0
LINE
  5
4E7
330
1F
100
AcDbEntity
  8
OBRYS
100
AcDbLine
 10
357.2027230552
 20
79.1140532784
 30
0.0
 11
364.273790709
 21
77.2839263004
 31
0.0
  0
LINE
  5
4E8
330
1F
100
AcDbEntity
  8
OBRYS
100
AcDbLine
 10
357.2784714787
 20
81.0627396496
 30
0.0
 11
364.3495391325
 21
79.2326126716
 31
0.0
  0
LWPOLYLINE
  5
4E9
330
1F
100
AcDbEntity
  8
OBRYS
100
AcDbPolyline
 90
       10
 70
   128
 43
0.0
 10
362.6422918008
 20
81.1526500422
 10
362.5756387002
 20
81.0536316552
 10
362.6031262656
 20
80.937671578
 10
362.737576441
 20
80.8215353174
 10
362.9731160384
 20
80.7103025004
 10
363.2994484263
 20
80.6088398759
 10
363.7023142226
 20
80.5215721227
 10
364.1641033712
 20
80.4523229795
 10
364.6646358044
 20
80.4041136477
 10
364.7519585592
 20
80.398179996
  0
ARC
  5
4EA
330
1F
100
AcDbEntity
  8
OBRYS
100
AcDbCircle
 10
369.8482112242
 20
87.5121206817
 30
0.0
 40
2.608039958569673
100
AcDbArc
 50
291.729502581
 51
7.6564660013
  0
ARC
  5
4EB
330
1F
100
AcDbEntity
  8
OBRYS
100
AcDbCircle
 10
360.5009612064
 20
116.034736981
 30
0.0
 40
0.56021315816587
100
AcDbArc
 50
162.2319502074
 51
245.6815717064
  0
LINE
  5
4EC
330
1F
100
AcDbEntity
  8
OBRYS
100
AcDbLine
 10
357.037676655
 20
84.0550246254
 30
0.0
 11
355.6234631901
 21
84.4210500039
 31
0.0
  0
LINE
  5
4ED
330
1F
100
AcDbEntity
  8
OBRYS
100
AcDbLine
 10
355.5296416711
 20
82.0074420874
 30
0.0
 11
355.6234631901
 21
84.4210500039
 31
0.0
  0
ARC
  5
4EE
330
1F
100
AcDbEntity
  8
OBRYS
100
AcDbCircle
 10
358.3319145306
 20
81.697418249
 30
0.0
 40
2.819370135172193
100
AcDbArc
 50
173.6868696517
 51
246.3898121635
  0
ARC
  5
4EF
330
1F
100
AcDbEntity
  8
OBRYS
100
AcDbCircle
 10
357.5043102676
 20
81.5794129178
 30
0.0
 40
0.5638744758791814
100
AcDbArc
 50
173.6869745407
 51
246.3897773419
  0
LINE
  5
4F0
330
1F
100
AcDbEntity
  8
OBRYS
100
AcDbLine
 10
357.5044292947
 20
84.141626742
 30
0.0
 11
356.0902158298
 21
84.5076521206
 31
0.0
  0
LINE
  5
4F1
330
1F
100
AcDbEntity
  8
OBRYS
100
AcDbLine
 10
355.6234631901
 20
84.4210500039
 30
0.0
 11
356.0902158298
 21
84.5076521206
 31
0.0
  0
ARC
  5
4F2
330
1F
100
AcDbEntity
  8
OBRYS
100
AcDbCircle
 10
357.2457914274
 20
86.99061214
 30
0.0
 40
4.263955498579309
100
AcDbArc
 50
285.9924201703
 51
350.276400012
  0
LINE
  5
4F3
330
1F
100
AcDbEntity
  8
OBRYS
100
AcDbLine
 10
362.576798891
 20
88.0992624568
 30
0.0
 11
362.6539302579
 21
88.1975832826
 31
0.0
  0
LINE
  5
4F4
330
1F
100
AcDbEntity
  8
0
  6
SLD-Plná
 62
     7
100
AcDbLine
 10
365.4273624651
 20
87.479765515
 30
0.0
 11
365.4574948276
 21
86.9800776691
 31
0.0
  0
LINE
  5
4F5
330
1F
100
AcDbEntity
  8
0
  6
SLD-Plná
 62
     7
100
AcDbLine
 10
365.694755243
 20
83.0452214778
 30
0.0
 11
365.7574434118
 21
82.00558852
 31
0.0
  0
LINE
  5
4F6
330
1F
100
AcDbEntity
  8
0
  6
SLD-Plná
 62
     7
100
AcDbLine
 10
317.1451465086
 20
71.715599289
 30
0.0
 11
317.4996331147
 21
72.8604630778
 31
0.0
  0
LINE
  5
4F7
330
1F
100
AcDbEntity
  8
0
  6
SLD-Plná
 62
     7
100
AcDbLine
 10
317.1659459783
 20
68.0484088264
 30
0.0
 11
317.4878293629
 21
67.2131773181
 31
0.0
  0
LINE
  5
4F8
330
1F
100
AcDbEntity
  8
0
  6
SLD-Plná
 62
     7
100
AcDbLine
 10
317.1659459783
 20
68.0484088264
 30
0.0
 11
315.1570342248
 21
68.5683534481
 31
0.0
  0
LINE
  5
4F9
330
1F
100
AcDbEntity
  8
0
  6
SLD-Plná
 62
     7
100
AcDbLine
 10
317.1451465086
 20
71.715599289
 30
0.0
 11
316.9543227007
 21
71.7649881248
 31
0.0
  0
LINE
  5
4FA
330
1F
100
AcDbEntity
  8
0
  6
SLD-Plná
 62
     7
100
AcDbLine
 10
317.7950377417
 20
72.8485888238
 30
0.0
 11
317.7950377417
 21
71.6894780021
 31
0.0
  0
LINE
  5
4FB
330
1F
100
AcDbEntity
  8
0
  6
SLD-Plná
 62
     7
100
AcDbLine
 10
317.7950377417
 20
72.8485888238
 30
0.0
 11
310.7239700879
 21
74.6787158018
 31
0.0
  0
LINE
  5
4FC
330
1F
100
AcDbEntity
  8
0
  6
SLD-Plná
 62
     7
100
AcDbLine
 10
317.5925428788
 20
68.5521148385
 30
0.0
 11
315.0423126022
 21
69.2121630035
 31
0.0
  0
LINE
  5
4FD
330
1F
100
AcDbEntity
  8
0
  6
SLD-Plná
 62
     7
100
AcDbLine
 10
315.0578042444
 20
69.6466879484
 30
0.0
 11
315.0483106668
 21
69.4843415632
 31
0.0
  0
LINE
  5
4FE
330
1F
100
AcDbEntity
  8
0
  6
SLD-Plná
 62
     7
100
AcDbLine
 10
337.2076700414
 20
141.7155127166
 30
0.0
 11
337.2076700414
 21
142.9050962001
 31
0.0
  0
LINE
  5
4FF
330
1F
100
AcDbEntity
  8
0
  6
SLD-Plná
 62
     7
100
AcDbLine
 10
345.6929514894
 20
142.7220834741
 30
0.0
 11
345.6929514894
 21
145.1012486418
 31
0.0
  0
LINE
  5
500
330
1F
100
AcDbEntity
  8
0
  6
SLD-Plná
 62
     7
100
AcDbLine
 10
327.1313984042
 20
128.7417504184
 30
0.0
 11
328.5456115399
 21
128.3757251251
 31
0.0
  0
LINE
  5
501
330
1F
100
AcDbEntity
  8
0
  6
SLD-Plná
 62
     7
100
AcDbLine
 10
330.6669328897
 20
134.4864440009
 30
0.0
 11
332.0811460253
 21
134.1204187076
 31
0.0
  0
LINE
  5
502
330
1F
100
AcDbEntity
  8
0
  6
SLD-Plná
 62
     7
100
AcDbLine
 10
327.1313984042
 20
109.0463026833
 30
0.0
 11
328.5456115399
 21
108.6802773899
 31
0.0
  0
LINE
  5
503
330
1F
100
AcDbEntity
  8
0
  6
SLD-Plná
 62
     7
100
AcDbLine
 10
321.1209910961
 20
136.9571155406
 30
0.0
 11
328.899165647
 21
134.9439758307
 31
0.0
  0
LINE
  5
504
330
1F
100
AcDbEntity
  8
0
  6
SLD-Plná
 62
     7
100
AcDbLine
 10
317.5854566106
 20
131.212421958
 30
0.0
 11
325.3636311615
 21
129.1992822481
 31
0.0
  0
LINE
  5
505
330
1F
100
AcDbEntity
  8
0
  6
SLD-Plná
 62
     7
100
AcDbLine
 10
333.5985254265
 20
135.2451959819
 30
0.0
 11
335.0127385621
 21
134.8791706886
 31
0.0
  0
LINE
  5
506
330
1F
100
AcDbEntity
  8
0
  6
SLD-Plná
 62
     7
100
AcDbLine
 10
317.5855945757
 20
111.5169385149
 30
0.0
 11
320.8858819398
 21
110.6627612908
 31
0.0
  0
LINE
  5
507
330
1F
100
AcDbEntity
  8
0
  6
SLD-Plná
 62
     7
100
AcDbLine
 10
315.3968735004
 20
103.8212316214
 30
0.0
 11
315.4962775011
 21
103.7955039728
 31
0.0
  0
LINE
  5
508
330
1F
100
AcDbEntity
  8
0
  6
SLD-Plná
 62
     7
100
AcDbLine
 10
317.2641827089
 20
110.6241694558
 30
0.0
 11
320.8110700695
 21
109.706167456
 31
0.0
  0
LINE
  5
509
330
1F
100
AcDbEntity
  8
0
  6
SLD-Plná
 62
     7
100
AcDbLine
 10
326.8099865375
 20
108.1535336241
 30
0.0
 11
328.2241996731
 21
107.7875083308
 31
0.0
  0
LINE
  5
50A
330
1F
100
AcDbEntity
  8
0
  6
SLD-Plná
 62
     7
100
AcDbLine
 10
326.8099865375
 20
100.8673006035
 30
0.0
 11
328.2241996731
 21
100.5012753101
 31
0.0
  0
LINE
  5
50B
330
1F
100
AcDbEntity
  8
0
  6
SLD-Plná
 62
     7
100
AcDbLine
 10
317.2640447439
 20
103.3379721431
 30
0.0
 11
320.2525423586
 21
102.5644920442
 31
0.0
  0
LINE
  5
50C
330
1F
100
AcDbEntity
  8
0
  6
SLD-Plná
 62
     7
100
AcDbLine
 10
324.5892618455
 20
101.4420664477
 30
0.0
 11
325.0422192948
 21
101.3248324332
 31
0.0
  0
LINE
  5
50D
330
1F
100
AcDbEntity
  8
0
  6
SLD-Plná
 62
     7
100
AcDbLine
 10
333.8693064158
 20
132.6513753781
 30
0.0
 11
334.7174998883
 21
132.4318467535
 31
0.0
  0
LINE
  5
50E
330
1F
100
AcDbEntity
  8
0
  6
SLD-Plná
 62
     7
100
AcDbLine
 10
324.0525836329
 20
137.7158675216
 30
0.0
 11
331.8307581838
 21
135.7027278117
 31
0.0
  0
LINE
  5
50F
330
1F
100
AcDbEntity
  8
0
  6
SLD-Plná
 62
     7
100
AcDbLine
 10
320.8706032545
 20
138.5394246446
 30
0.0
 11
322.2848163901
 21
138.1733993513
 31
0.0
  0
LINE
  5
510
330
1F
100
AcDbEntity
  8
0
  6
SLD-Plná
 62
     7
100
AcDbLine
 10
329.2153763292
 20
102.2106832326
 30
0.0
 11
329.4547493553
 21
102.1487289346
 31
0.0
  0
LINE
  5
511
330
1F
100
AcDbEntity
  8
0
  6
SLD-Plná
 62
     7
100
AcDbLine
 10
324.9363885582
 20
138.9017788975
 30
0.0
 11
339.0785238658
 21
135.2415249415
 31
0.0
  0
LINE
  5
512
330
1F
100
AcDbEntity
  8
0
  6
SLD-Plná
 62
     7
100
AcDbLine
 10
327.1313984042
 20
100.1409067941
 30
0.0
 11
328.5456115399
 21
99.7748815007
 31
0.0
  0
LINE
  5
513
330
1F
100
AcDbEntity
  8
0
  6
SLD-Plná
 62
     7
100
AcDbLine
 10
317.5854566106
 20
102.6115783337
 30
0.0
 11
320.2032368843
 21
101.934046943
 31
0.0
  0
LINE
  5
514
330
1F
100
AcDbEntity
  8
0
  6
SLD-Plná
 62
     7
100
AcDbLine
 10
324.6315239393
 20
100.787921916
 30
0.0
 11
325.3636311615
 21
100.5984386238
 31
0.0
  0
LINE
  5
515
330
1F
100
AcDbEntity
  8
0
  6
SLD-Plná
 62
     7
100
AcDbLine
 10
324.4756490884
 20
77.7520768397
 30
0.0
 11
325.010077713
 21
77.6137565334
 31
0.0
  0
LINE
  5
516
330
1F
100
AcDbEntity
  8
0
  6
SLD-Plná
 62
     7
100
AcDbLine
 10
315.4391355942
 20
103.1670870897
 30
0.0
 11
315.8176893679
 21
103.0691101634
 31
0.0
  0
LINE
  5
517
330
1F
100
AcDbEntity
  8
0
  6
SLD-Plná
 62
     7
100
AcDbLine
 10
325.6140190031
 20
139.7671109792
 30
0.0
 11
339.7561543107
 21
136.1068570232
 31
0.0
  0
LINE
  5
518
330
1F
100
AcDbEntity
  8
0
  6
SLD-Plná
 62
     7
100
AcDbLine
 10
361.7796310933
 20
141.8603547017
 30
0.0
 11
361.8827967003
 21
141.8336534778
 31
0.0
  0
LINE
  5
519
330
1F
100
AcDbEntity
  8
0
  6
SLD-Plná
 62
     7
100
AcDbLine
 10
317.9390107177
 20
137.7806726636
 30
0.0
 11
319.3532238533
 21
137.4146473703
 31
0.0
  0
LINE
  5
51A
330
1F
100
AcDbEntity
  8
0
  6
SLD-Plná
 62
     7
100
AcDbLine
 10
314.4034762323
 20
132.0359790811
 30
0.0
 11
315.8176893679
 21
131.6699537878
 31
0.0
  0
LINE
  5
51B
330
1F
100
AcDbEntity
  8
0
  6
SLD-Plná
 62
     7
100
AcDbLine
 10
360.739364554
 20
139.6058581673
 30
0.0
 11
361.5875580265
 21
139.3863295427
 31
0.0
  0
LINE
  5
51C
330
1F
100
AcDbEntity
  8
0
  6
SLD-Plná
 62
     7
100
AcDbLine
 10
361.7796310933
 20
143.2750116244
 30
0.0
 11
365.948582004
 21
142.1960077307
 31
0.0
  0
LINE
  5
51D
330
1F
100
AcDbEntity
  8
0
  6
SLD-Plná
 62
     7
100
AcDbLine
 10
352.4840771412
 20
146.7215937684
 30
0.0
 11
353.8982902769
 21
146.355568475
 31
0.0
  0
LINE
  5
51E
330
1F
100
AcDbEntity
  8
0
  6
SLD-Plná
 62
     7
100
AcDbLine
 10
355.6660575196
 20
145.8980366453
 30
0.0
 11
363.4442320705
 21
143.8848969354
 31
0.0
  0
LINE
  5
51F
330
1F
100
AcDbEntity
  8
0
  6
SLD-Plná
 62
     7
100
AcDbLine
 10
365.2119993132
 20
143.4273651057
 30
0.0
 11
366.6262124489
 21
143.0613398123
 31
0.0
  0
LINE
  5
520
330
1F
100
AcDbEntity
  8
0
  6
SLD-Plná
 62
     7
100
AcDbLine
 10
368.14359185
 20
144.1861170867
 30
0.0
 11
369.5578049857
 21
143.8200917933
 31
0.0
  0
LINE
  5
521
330
1F
100
AcDbEntity
  8
0
  6
SLD-Plná
 62
     7
100
AcDbLine
 10
358.5976500564
 20
146.6567886263
 30
0.0
 11
366.3758246073
 21
144.6436489164
 31
0.0
  0
LINE
  5
522
330
1F
100
AcDbEntity
  8
0
  6
SLD-Plná
 62
     7
100
AcDbLine
 10
370.2649125413
 20
139.9055253593
 30
0.0
 11
371.6791256769
 21
139.5395000659
 31
0.0
  0
LINE
  5
523
330
1F
100
AcDbEntity
  8
0
  6
SLD-Plná
 62
     7
100
AcDbLine
 10
370.2649125413
 20
118.9971934484
 30
0.0
 11
371.6791256769
 21
118.6311681551
 31
0.0
  0
LINE
  5
524
330
1F
100
AcDbEntity
  8
0
  6
SLD-Plná
 62
     7
100
AcDbLine
 10
366.9229978791
 20
140.770476521
 30
0.0
 11
367.6971618939
 21
140.5701081299
 31
0.0
  0
LINE
  5
525
330
1F
100
AcDbEntity
  8
0
  6
SLD-Plná
 62
     7
100
AcDbLine
 10
360.7189707477
 20
121.4678649881
 30
0.0
 11
368.4971452986
 21
119.4547252782
 31
0.0
  0
LINE
  5
526
330
1F
100
AcDbEntity
  8
0
  6
SLD-Plná
 62
     7
100
AcDbLine
 10
355.415669678
 20
147.4803457494
 30
0.0
 11
356.8298828137
 21
147.114320456
 31
0.0
  0
LINE
  5
527
330
1F
100
AcDbEntity
  8
0
  6
SLD-Plná
 62
     7
100
AcDbLine
 10
361.2240467264
 20
116.0446218097
 30
0.0
 11
369.0022212773
 21
114.0314820998
 31
0.0
  0
LINE
  5
528
330
1F
100
AcDbEntity
  8
0
  6
SLD-Plná
 62
     7
100
AcDbLine
 10
358.0420663481
 20
116.8681789327
 30
0.0
 11
359.4562794837
 21
116.5021536394
 31
0.0
  0
LINE
  5
529
330
1F
100
AcDbEntity
  8
0
  6
SLD-Plná
 62
     7
100
AcDbLine
 10
370.7699885201
 20
113.57395027
 30
0.0
 11
372.1842016557
 21
113.2079249767
 31
0.0
  0
LINE
  5
52A
330
1F
100
AcDbEntity
  8
0
  6
SLD-Plná
 62
     7
100
AcDbLine
 10
370.2649125413
 20
112.5175659107
 30
0.0
 11
371.6791256769
 21
112.1515406173
 31
0.0
  0
LINE
  5
52B
330
1F
100
AcDbEntity
  8
0
  6
SLD-Plná
 62
     7
100
AcDbLine
 10
361.0725241962
 20
90.6076584523
 30
0.0
 11
368.14359185
 21
88.7775314742
 31
0.0
  0
LINE
  5
52C
330
1F
100
AcDbEntity
  8
0
  6
SLD-Plná
 62
     7
100
AcDbLine
 10
357.5369903693
 20
115.8117945734
 30
0.0
 11
358.951203505
 21
115.44576928
 31
0.0
  0
LINE
  5
52D
330
1F
100
AcDbEntity
  8
0
  6
SLD-Plná
 62
     7
100
AcDbLine
 10
360.7189707477
 20
114.9882374503
 30
0.0
 11
368.4971452986
 21
112.9750977404
 31
0.0
  0
LINE
  5
52E
330
1F
100
AcDbEntity
  8
0
  6
SLD-Plná
 62
     7
100
AcDbLine
 10
357.5369903693
 20
122.2914221111
 30
0.0
 11
358.951203505
 21
121.9253968178
 31
0.0
  0
LINE
  5
52F
330
1F
100
AcDbEntity
  8
0
  6
SLD-Plná
 62
     7
100
AcDbLine
 10
369.7963021476
 20
88.4819282982
 30
0.0
 11
370.2649112242
 21
88.3606433444
 31
0.0
  0
LWPOLYLINE
  5
530
330
1F
100
AcDbEntity
  8
0
  6
SLD-Plná
 62
     7
100
AcDbPolyline
 90
        5
 70
   128
 43
0.0
 10
315.9390108823
 20
69.6096570286
 10
315.9825952512
 20
69.5021794124
 10
316.1388231231
 20
69.3841231661
 10
316.3996718927
 20
69.279174247
 10
316.5621130625
 20
69.234221561
  0
ARC
  5
531
330
1F
100
AcDbEntity
  8
0
  6
SLD-Plná
 62
     7
100
AcDbCircle
 10
369.3309112852
 20
85.3009583108
 30
0.0
 40
2.929029056600603
100
AcDbArc
 50
232.745516098
 51
284.8764091628
  0
LWPOLYLINE
  5
532
330
1F
100
AcDbEntity
  8
0
  6
SLD-Plná
 62
     7
100
AcDbPolyline
 90
        8
 70
   128
 43
0.0
 10
368.4676148869
 20
81.7644956516
 10
368.284215942
 20
81.7930912471
 10
367.8918774477
 20
81.8788132771
 10
367.5830744497
 20
81.984981638
 10
367.373294644
 20
82.1062733563
 10
367.2730538801
 20
82.2366055767
 10
367.2873784579
 20
82.3694427253
 10
367.3487569463
 20
82.4455828528
  0
LINE
  5
533
330
1F
100
AcDbEntity
  8
0
  6
SLD-Plná
 62
     7
100
AcDbLine
 10
318.8404244646
 20
66.0592707258
 30
0.0
 11
331.9673119973
 21
70.4186100708
 31
0.0
  0
LINE
  5
534
330
1F
100
AcDbEntity
  8
0
  6
SLD-Plná
 62
     7
100
AcDbLine
 10
324.6669631827
 20
106.2150619676
 30
0.0
 11
325.6354836028
 21
105.9643904373
 31
0.0
  0
LINE
  5
535
330
1F
100
AcDbEntity
  8
0
  6
SLD-Plná
 62
     7
100
AcDbLine
 10
325.1654392284
 20
102.1611751685
 30
0.0
 11
325.8312336529
 21
101.9888548913
 31
0.0
  0
LINE
  5
536
330
1F
100
AcDbEntity
  8
0
  6
SLD-Plná
 62
     7
100
AcDbLine
 10
316.8027385966
 20
65.9435073758
 30
0.0
 11
316.8784870201
 21
64.0340348722
 31
0.0
  0
LINE
  5
537
330
1F
100
AcDbEntity
  8
0
  6
SLD-Plná
 62
     7
100
AcDbLine
 10
317.1450368609
 20
66.0571812139
 30
0.0
 11
316.8027385966
 21
65.9435073758
 31
0.0
  0
LINE
  5
538
330
1F
100
AcDbEntity
  8
0
  6
SLD-Plná
 62
     7
100
AcDbLine
 10
309.7316709428
 20
67.7736343538
 30
0.0
 11
310.2188937799
 21
67.9354397727
 31
0.0
  0
LINE
  5
539
330
1F
100
AcDbEntity
  8
0
  6
SLD-Plná
 62
     7
100
AcDbLine
 10
309.7316709428
 20
67.7736343538
 30
0.0
 11
309.8074193662
 21
65.8641618502
 31
0.0
  0
LINE
  5
53A
330
1F
100
AcDbEntity
  8
0
  6
SLD-Plná
 62
     7
100
AcDbLine
 10
316.0895421384
 20
108.4350618918
 30
0.0
 11
315.4745751669
 21
108.5942270561
 31
0.0
  0
LINE
  5
53B
330
1F
100
AcDbEntity
  8
0
  6
SLD-Plná
 62
     7
100
AcDbLine
 10
316.2852921885
 20
104.4595263457
 30
0.0
 11
315.9730508833
 21
104.5403403422
 31
0.0
  0
LINE
  5
53C
330
1F
100
AcDbEntity
  8
0
  6
SLD-Plná
 62
     7
100
AcDbLine
 10
366.1362431519
 20
79.2622516203
 30
0.0
 11
379.2631306846
 21
81.6978892681
 31
0.0
  0
LINE
  5
53D
330
1F
100
AcDbEntity
  8
0
  6
SLD-Plná
 62
     7
100
AcDbLine
 10
361.4578682223
 20
82.478972154
 30
0.0
 11
356.943855136
 21
81.6414167088
 31
0.0
  0
LINE
  5
53E
330
1F
100
AcDbEntity
  8
0
  6
SLD-Plná
 62
     7
100
AcDbLine
 10
364.722029687
 20
79.6282769989
 30
0.0
 11
366.1362431519
 21
79.2622516203
 31
0.0
  0
LINE
  5
53F
330
1F
100
AcDbEntity
  8
0
  6
SLD-Plná
 62
     7
100
AcDbLine
 10
364.3495391325
 20
79.2326126716
 30
0.0
 11
364.273790709
 21
77.2839263004
 31
0.0
  0
LINE
  5
540
330
1F
100
AcDbEntity
  8
0
  6
SLD-Plná
 62
     7
100
AcDbLine
 10
372.4329997708
 20
87.8595981553
 30
0.0
 11
373.8472132357
 21
87.4935727767
 31
0.0
  0
LINE
  5
541
330
1F
100
AcDbEntity
  8
0
  6
SLD-Plná
 62
     7
100
AcDbLine
 10
364.5609213829
 20
79.2718315094
 30
0.0
 11
364.3495391325
 21
79.2326126716
 31
0.0
  0
LINE
  5
542
330
1F
100
AcDbEntity
  8
0
  6
SLD-Plná
 62
     7
100
AcDbLine
 10
357.2784714787
 20
81.0627396496
 30
0.0
 11
357.2027230552
 21
79.1140532784
 31
0.0
  0
LINE
  5
543
330
1F
100
AcDbEntity
  8
0
  6
SLD-Plná
 62
     7
100
AcDbLine
 10
357.2784714787
 20
81.0627396496
 30
0.0
 11
360.6085967125
 21
81.6806278938
 31
0.0
  0
LINE
  5
544
330
1F
100
AcDbEntity
  8
0
  6
SLD-Plná
 62
     7
100
AcDbLine
 10
356.943855136
 20
81.6414167088
 30
0.0
 11
355.5296416711
 21
82.0074420874
 31
0.0
  0
ENDSEC
  0
SECTION
  2
OBJECTS
  0
DICTIONARY
  5
C
330
0
100
AcDbDictionary
281
     1
  3
ACAD_DETAILVIEWSTYLE
350
54E
  3
ACAD_GROUP
350
D
  3
ACAD_LAYOUT
350
1A
  3
ACAD_MATERIAL
350
43
  3
ACAD_MLEADERSTYLE
350
6B
  3
ACAD_MLINESTYLE
350
17
  3
ACAD_PLOTSETTINGS
350
19
  3
ACAD_PLOTSTYLENAME
350
E
  3
ACAD_SCALELIST
350
47
  3
ACAD_SECTIONVIEWSTYLE
350
54F
  3
ACAD_TABLESTYLE
350
69
  3
ACDB_RECOMPOSE_DATA
350
54B
  3
AcDbVariableDictionary
350
545
  0
DICTIONARY
  5
54E
102
{ACAD_REACTORS
330
C
102
}
330
C
100
AcDbDictionary
281
     1
  0
DICTIONARY
  5
D
102
{ACAD_REACTORS
330
C
102
}
330
C
100
AcDbDictionary
281
     1
  0
DICTIONARY
  5
1A
102
{ACAD_REACTORS
330
C
102
}
330
C
100
AcDbDictionary
281
     1
  3
Layout1
350
1E
  3
Layout2
350
26
  3
Model
350
22
  0
DICTIONARY
  5
43
102
{ACAD_REACTORS
330
C
102
}
330
C
100
AcDbDictionary
281
     1
  3
ByBlock
350
45
  3
ByLayer
350
44
  3
Global
350
46
  0
DICTIONARY
  5
6B
102
{ACAD_REACTORS
330
C
102
}
330
C
100
AcDbDictionary
281
     1
  3
Standard
350
6C
  0
DICTIONARY
  5
17
102
{ACAD_REACTORS
330
C
102
}
330
C
100
AcDbDictionary
281
     1
  3
Standard
350
18
  0
DICTIONARY
  5
19
102
{ACAD_REACTORS
330
C
102
}
330
C
100
AcDbDictionary
281
     1
  0
ACDBDICTIONARYWDFLT
  5
E
102
{ACAD_REACTORS
330
C
102
}
330
C
100
AcDbDictionary
281
     1
  3
Normal
350
F
100
AcDbDictionaryWithDefault
340
F
  0
DICTIONARY
  5
47
102
{ACAD_REACTORS
330
C
102
}
330
C
100
AcDbDictionary
281
     1
  3
A0
350
48
  3
A1
350
49
  3
A2
350
4A
  3
A3
350
4B
  3
A4
350
4C
  3
A5
350
4D
  3
A6
350
4E
  3
A7
350
4F
  3
A8
350
50
  3
A9
350
51
  3
B0
350
52
  3
B1
350
53
  3
B2
350
54
  3
B3
350
55
  3
B4
350
56
  3
B5
350
57
  3
B6
350
58
  3
B7
350
59
  3
B8
350
5A
  3
B9
350
5B
  3
C0
350
5C
  3
C1
350
5D
  3
C2
350
5E
  3
C3
350
5F
  3
C4
350
60
  3
C5
350
61
  3
C6
350
62
  3
C7
350
63
  3
C8
350
64
  3
C9
350
65
  3
D0
350
66
  3
D1
350
67
  3
D2
350
68
  0
DICTIONARY
  5
54F
102
{ACAD_REACTORS
330
C
102
}
330
C
100
AcDbDictionary
281
     1
  0
DICTIONARY
  5
69
102
{ACAD_REACTORS
330
C
102
}
330
C
100
AcDbDictionary
281
     1
  3
Standard
350
6A
  0
XRECORD
  5
54B
102
{ACAD_REACTORS
330
C
102
}
330
C
100
AcDbXrecord
280
     1
 90
        1
330
6A
  0
DICTIONARY
  5
545
102
{ACAD_REACTORS
330
C
102
}
330
C
100
AcDbDictionary
281
     1
  3
CANNOSCALE
350
546
  3
CMLEADERSTYLE
350
54D
  3
CTABLESTYLE
350
54C
  0
LAYOUT
  5
1E
102
{ACAD_REACTORS
330
1A
102
}
330
1A
100
AcDbPlotSettings
  1

  2
none_device
  4

  6

 40
0.0
 41
0.0
 42
0.0
 43
0.0
 44
0.0
 45
0.0
 46
0.0
 47
0.0
 48
0.0
 49
0.0
140
0.0
141
0.0
142
1.0
143
1.0
 70
   688
 72
     1
 73
     0
 74
     5
  7

 75
    16
 76
     0
 77
     2
 78
   300
147
1.0
148
0.0
149
0.0
100
AcDbLayout
  1
Layout1
 70
     1
 71
     1
 10
0.0
 20
0.0
 11
420.0
 21
297.0
 12
0.0
 22
0.0
 32
0.0
 14
1.0000000000E+20
 24
1.0000000000E+20
 34
1.0000000000E+20
 15
-1.0000000000E+20
 25
-1.0000000000E+20
 35
-1.0000000000E+20
146
0.0
 13
0.0
 23
0.0
 33
0.0
 16
1.0
 26
0.0
 36
0.0
 17
0.0
 27
1.0
 37
0.0
 76
     0
330
1B
  0
LAYOUT
  5
26
102
{ACAD_REACTORS
330
1A
102
}
330
1A
100
AcDbPlotSettings
  1

  2
none_device
  4

  6

 40
0.0
 41
0.0
 42
0.0
 43
0.0
 44
0.0
 45
0.0
 46
0.0
 47
0.0
 48
0.0
 49
0.0
140
0.0
141
0.0
142
1.0
143
1.0
 70
   688
 72
     1
 73
     0
 74
     5
  7

 75
    16
 76
     0
 77
     2
 78
   300
147
1.0
148
0.0
149
0.0
100
AcDbLayout
  1
Layout2
 70
     1
 71
     2
 10
0.0
 20
0.0
 11
0.0
 21
0.0
 12
0.0
 22
0.0
 32
0.0
 14
0.0
 24
0.0
 34
0.0
 15
0.0
 25
0.0
 35
0.0
146
0.0
 13
0.0
 23
0.0
 33
0.0
 16
1.0
 26
0.0
 36
0.0
 17
0.0
 27
1.0
 37
0.0
 76
     0
330
23
  0
LAYOUT
  5
22
102
{ACAD_REACTORS
330
1A
102
}
330
1A
100
AcDbPlotSettings
  1

  2
none_device
  4
Letter_(8.50_x_11.00_Inches)
  6

 40
6.35
 41
6.35
 42
6.35000508
 43
6.35000508
 44
215.9
 45
279.4
 46
0.0
 47
0.0
 48
0.0
 49
0.0
140
0.0
141
0.0
142
1.0
143
1.0
 70
  1712
 72
     1
 73
     0
 74
     0
  7

 75
     0
 76
     0
 77
     2
 78
   300
147
1.0
148
0.0
149
0.0
100
AcDbLayout
  1
Model
 70
     1
 71
     0
 10
0.0
 20
0.0
 11
420.0
 21
297.0
 12
0.0
 22
0.0
 32
0.0
 14
0.0
 24
0.0
 34
0.0
 15
420.0
 25
297.0
 35
0.0
146
0.0
 13
0.0
 23
0.0
 33
0.0
 16
1.0
 26
0.0
 36
0.0
 17
0.0
 27
1.0
 37
0.0
 76
     0
330
1F
331
29
  0
MATERIAL
  5
45
102
{ACAD_REACTORS
330
43
102
}
330
43
100
AcDbMaterial
  1
ByBlock
  0
MATERIAL
  5
44
102
{ACAD_REACTORS
330
43
102
}
330
43
100
AcDbMaterial
  1
ByLayer
  0
MATERIAL
  5
46
102
{ACAD_REACTORS
330
43
102
}
330
43
100
AcDbMaterial
  1
Global
  0
MLEADERSTYLE
  5
6C
102
{ACAD_REACTORS
330
6B
102
}
330
6B
100
AcDbMLeaderStyle
170
     2
171
     1
172
     0
 90
        2
 40
0.0
 41
0.0
173
     1
 91
-1056964608
340
14
 92
       -2
290
     1
 42
2.0
291
     1
 43
8.0
  3
Standard
341
0
 44
4.0
300

342
11
174
     1
178
     6
175
     1
176
     0
 93
-1056964608
 45
4.0
292
     0
297
     0
 46
4.0
343
0
 94
-1056964608
 47
1.0
 49
1.0
140
1.0
293
     1
141
0.0
294
     1
177
     0
142
1.0
295
     0
296
     0
143
3.75
1001
ACAD_MLEADERVER
1070
     2
  0
MLINESTYLE
  5
18
102
{ACAD_REACTORS
330
17
102
}
330
17
100
AcDbMlineStyle
  2
Standard
 70
     0
  3

 62
   256
 51
90.0
 52
90.0
 71
     2
 49
0.5
 62
   256
  6
BYLAYER
 49
-0.5
 62
   256
  6
BYLAYER
  0
ACDBPLACEHOLDER
  5
F
102
{ACAD_REACTORS
330
E
102
}
330
E
  0
SCALE
  5
48
102
{ACAD_REACTORS
330
47
102
}
330
47
100
AcDbScale
 70
     0
300
1:1
140
1.0
141
1.0
290
     1
  0
SCALE
  5
49
102
{ACAD_REACTORS
330
47
102
}
330
47
100
AcDbScale
 70
     0
300
1:2
140
1.0
141
2.0
290
     0
  0
SCALE
  5
4A
102
{ACAD_REACTORS
330
47
102
}
330
47
100
AcDbScale
 70
     0
300
1:4
140
1.0
141
4.0
290
     0
  0
SCALE
  5
4B
102
{ACAD_REACTORS
330
47
102
}
330
47
100
AcDbScale
 70
     0
300
1:5
140
1.0
141
5.0
290
     0
  0
SCALE
  5
4C
102
{ACAD_REACTORS
330
47
102
}
330
47
100
AcDbScale
 70
     0
300
1:8
140
1.0
141
8.0
290
     0
  0
SCALE
  5
4D
102
{ACAD_REACTORS
330
47
102
}
330
47
100
AcDbScale
 70
     0
300
1:10
140
1.0
141
10.0
290
     0
  0
SCALE
  5
4E
102
{ACAD_REACTORS
330
47
102
}
330
47
100
AcDbScale
 70
     0
300
1:16
140
1.0
141
16.0
290
     0
  0
SCALE
  5
4F
102
{ACAD_REACTORS
330
47
102
}
330
47
100
AcDbScale
 70
     0
300
1:20
140
1.0
141
20.0
290
     0
  0
SCALE
  5
50
102
{ACAD_REACTORS
330
47
102
}
330
47
100
AcDbScale
 70
     0
300
1:30
140
1.0
141
30.0
290
     0
  0
SCALE
  5
51
102
{ACAD_REACTORS
330
47
102
}
330
47
100
AcDbScale
 70
     0
300
1:40
140
1.0
141
40.0
290
     0
  0
SCALE
  5
52
102
{ACAD_REACTORS
330
47
102
}
330
47
100
AcDbScale
 70
     0
300
1:50
140
1.0
141
50.0
290
     0
  0
SCALE
  5
53
102
{ACAD_REACTORS
330
47
102
}
330
47
100
AcDbScale
 70
     0
300
1:100
140
1.0
141
100.0
290
     0
  0
SCALE
  5
54
102
{ACAD_REACTORS
330
47
102
}
330
47
100
AcDbScale
 70
     0
300
2:1
140
2.0
141
1.0
290
     0
  0
SCALE
  5
55
102
{ACAD_REACTORS
330
47
102
}
330
47
100
AcDbScale
 70
     0
300
4:1
140
4.0
141
1.0
290
     0
  0
SCALE
  5
56
102
{ACAD_REACTORS
330
47
102
}
330
47
100
AcDbScale
 70
     0
300
8:1
140
8.0
141
1.0
290
     0
  0
SCALE
  5
57
102
{ACAD_REACTORS
330
47
102
}
330
47
100
AcDbScale
 70
     0
300
10:1
140
10.0
141
1.0
290
     0
  0
SCALE
  5
58
102
{ACAD_REACTORS
330
47
102
}
330
47
100
AcDbScale
 70
     0
300
100:1
140
100.0
141
1.0
290
     0
  0
SCALE
  5
59
102
{ACAD_REACTORS
330
47
102
}
330
47
100
AcDbScale
 70
     0
300
1/128" = 1'-0"
140
0.0078125
141
12.0
290
     0
  0
SCALE
  5
5A
102
{ACAD_REACTORS
330
47
102
}
330
47
100
AcDbScale
 70
     0
300
1/64" = 1'-0"
140
0.015625
141
12.0
290
     0
  0
SCALE
  5
5B
102
{ACAD_REACTORS
330
47
102
}
330
47
100
AcDbScale
 70
     0
300
1/32" = 1'-0"
140
0.03125
141
12.0
290
     0
  0
SCALE
  5
5C
102
{ACAD_REACTORS
330
47
102
}
330
47
100
AcDbScale
 70
     0
300
1/16" = 1'-0"
140
0.0625
141
12.0
290
     0
  0
SCALE
  5
5D
102
{ACAD_REACTORS
330
47
102
}
330
47
100
AcDbScale
 70
     0
300
3/32" = 1'-0"
140
0.09375
141
12.0
290
     0
  0
SCALE
  5
5E
102
{ACAD_REACTORS
330
47
102
}
330
47
100
AcDbScale
 70
     0
300
1/8" = 1'-0"
140
0.125
141
12.0
290
     0
  0
SCALE
  5
5F
102
{ACAD_REACTORS
330
47
102
}
330
47
100
AcDbScale
 70
     0
300
3/16" = 1'-0"
140
0.1875
141
12.0
290
     0
  0
SCALE
  5
60
102
{ACAD_REACTORS
330
47
102
}
330
47
100
AcDbScale
 70
     0
300
1/4" = 1'-0"
140
0.25
141
12.0
290
     0
  0
SCALE
  5
61
102
{ACAD_REACTORS
330
47
102
}
330
47
100
AcDbScale
 70
     0
300
3/8" = 1'-0"
140
0.375
141
12.0
290
     0
  0
SCALE
  5
62
102
{ACAD_REACTORS
330
47
102
}
330
47
100
AcDbScale
 70
     0
300
1/2" = 1'-0"
140
0.5
141
12.0
290
     0
  0
SCALE
  5
63
102
{ACAD_REACTORS
330
47
102
}
330
47
100
AcDbScale
 70
     0
300
3/4" = 1'-0"
140
0.75
141
12.0
290
     0
  0
SCALE
  5
64
102
{ACAD_REACTORS
330
47
102
}
330
47
100
AcDbScale
 70
     0
300
1" = 1'-0"
140
1.0
141
12.0
290
     0
  0
SCALE
  5
65
102
{ACAD_REACTORS
330
47
102
}
330
47
100
AcDbScale
 70
     0
300
1-1/2" = 1'-0"
140
1.5
141
12.0
290
     0
  0
SCALE
  5
66
102
{ACAD_REACTORS
330
47
102
}
330
47
100
AcDbScale
 70
     0
300
3" = 1'-0"
140
3.0
141
12.0
290
     0
  0
SCALE
  5
67
102
{ACAD_REACTORS
330
47
102
}
330
47
100
AcDbScale
 70
     0
300
6" = 1'-0"
140
6.0
141
12.0
290
     0
  0
SCALE
  5
68
102
{ACAD_REACTORS
330
47
102
}
330
47
100
AcDbScale
 70
     0
300
1'-0" = 1'-0"
140
12.0
141
12.0
290
     0
  0
TABLESTYLE
  5
6A
102
{ACAD_REACTORS
330
69
102
}
102
{ACAD_XDICTIONARY
360
547
102
}
330
69
100
AcDbTableStyle
  3
Standard
 70
     0
 71
     0
 40
0.06
 41
0.06
280
     0
281
     0
  7
STANDARD
140
4.5
170
     2
 62
     0
 63
   257
283
     0
274
    -2
284
     1
 64
     0
275
    -2
285
     1
 65
     0
276
    -2
286
     1
 66
     0
277
    -2
287
     1
 67
     0
278
    -2
288
     1
 68
     0
279
    -2
289
     1
 69
     0
  7
STANDARD
140
6.0
170
     5
 62
     0
 63
   257
283
     0
274
    -2
284
     1
 64
     0
275
    -2
285
     1
 65
     0
276
    -2
286
     1
 66
     0
277
    -2
287
     1
 67
     0
278
    -2
288
     1
 68
     0
279
    -2
289
     1
 69
     0
  7
STANDARD
140
4.5
170
     5
 62
     0
 63
   257
283
     0
274
    -2
284
     1
 64
     0
275
    -2
285
     1
 65
     0
276
    -2
286
     1
 66
     0
277
    -2
287
     1
 67
     0
278
    -2
288
     1
 68
     0
279
    -2
289
     1
 69
     0
  0
DICTIONARYVAR
  5
546
102
{ACAD_REACTORS
330
545
102
}
330
545
100
DictionaryVariables
280
     0
  1
1:1
  0
DICTIONARYVAR
  5
54D
102
{ACAD_REACTORS
330
545
102
}
330
545
100
DictionaryVariables
280
     0
  1
Standard
  0
DICTIONARYVAR
  5
54C
102
{ACAD_REACTORS
330
545
102
}
330
545
100
DictionaryVariables
280
     0
  1
Standard
  0
DICTIONARY
  5
547
330
6A
100
AcDbDictionary
280
     1
281
     1
  3
ACAD_ROUNDTRIP_2008_TABLESTYLE_CELLSTYLEMAP
360
549
  3
ACAD_XREC_ROUNDTRIP
360
548
  0
CELLSTYLEMAP
  5
549
102
{ACAD_REACTORS
330
547
102
}
330
547
100
AcDbCellStyleMap
 90
        3
300
CELLSTYLE
  1
TABLEFORMAT_BEGIN
 90
        5
170
     1
 91
        0
 92
    32768
 62
   257
 93
        1
300
CONTENTFORMAT
  1
CONTENTFORMAT_BEGIN
 90
        0
 91
        0
 92
        4
 93
        0
300

 40
0.0
140
1.0
 94
        5
 62
     0
340
11
144
6.0
309
CONTENTFORMAT_END
171
     1
301
MARGIN
  1
CELLMARGIN_BEGIN
 40
1.5
 40
1.5
 40
1.5
 40
1.5
 40
1.5
 40
1.5
309
CELLMARGIN_END
 94
        6
 95
        1
302
GRIDFORMAT
  1
GRIDFORMAT_BEGIN
 90
        0
 91
        1
 62
     0
 92
       -2
340
14
 93
        0
 40
0.045
309
GRIDFORMAT_END
 95
        2
302
GRIDFORMAT
  1
GRIDFORMAT_BEGIN
 90
        0
 91
        1
 62
     0
 92
       -2
340
14
 93
        0
 40
0.045
309
GRIDFORMAT_END
 95
        4
302
GRIDFORMAT
  1
GRIDFORMAT_BEGIN
 90
        0
 91
        1
 62
     0
 92
       -2
340
14
 93
        0
 40
0.045
309
GRIDFORMAT_END
 95
        8
302
GRIDFORMAT
  1
GRIDFORMAT_BEGIN
 90
        0
 91
        1
 62
     0
 92
       -2
340
14
 93
        0
 40
0.045
309
GRIDFORMAT_END
 95
       16
302
GRIDFORMAT
  1
GRIDFORMAT_BEGIN
 90
        0
 91
        1
 62
     0
 92
       -2
340
14
 93
        0
 40
0.045
309
GRIDFORMAT_END
 95
       32
302
GRIDFORMAT
  1
GRIDFORMAT_BEGIN
 90
        0
 91
        1
 62
     0
 92
       -2
340
14
 93
        0
 40
0.045
309
GRIDFORMAT_END
309
TABLEFORMAT_END
  1
CELLSTYLE_BEGIN
 90
        1
 91
        1
300
_TITLE
309
CELLSTYLE_END
300
CELLSTYLE
  1
TABLEFORMAT_BEGIN
 90
        5
170
     1
 91
        0
 92
        0
 62
   257
 93
        1
300
CONTENTFORMAT
  1
CONTENTFORMAT_BEGIN
 90
        0
 91
        0
 92
        4
 93
        0
300

 40
0.0
140
1.0
 94
        5
 62
     0
340
11
144
4.5
309
CONTENTFORMAT_END
171
     1
301
MARGIN
  1
CELLMARGIN_BEGIN
 40
1.5
 40
1.5
 40
1.5
 40
1.5
 40
1.5
 40
1.5
309
CELLMARGIN_END
 94
        6
 95
        1
302
GRIDFORMAT
  1
GRIDFORMAT_BEGIN
 90
        0
 91
        1
 62
     0
 92
       -2
340
14
 93
        0
 40
0.045
309
GRIDFORMAT_END
 95
        2
302
GRIDFORMAT
  1
GRIDFORMAT_BEGIN
 90
        0
 91
        1
 62
     0
 92
       -2
340
14
 93
        0
 40
0.045
309
GRIDFORMAT_END
 95
        4
302
GRIDFORMAT
  1
GRIDFORMAT_BEGIN
 90
        0
 91
        1
 62
     0
 92
       -2
340
14
 93
        0
 40
0.045
309
GRIDFORMAT_END
 95
        8
302
GRIDFORMAT
  1
GRIDFORMAT_BEGIN
 90
        0
 91
        1
 62
     0
 92
       -2
340
14
 93
        0
 40
0.045
309
GRIDFORMAT_END
 95
       16
302
GRIDFORMAT
  1
GRIDFORMAT_BEGIN
 90
        0
 91
        1
 62
     0
 92
       -2
340
14
 93
        0
 40
0.045
309
GRIDFORMAT_END
 95
       32
302
GRIDFORMAT
  1
GRIDFORMAT_BEGIN
 90
        0
 91
        1
 62
     0
 92
       -2
340
14
 93
        0
 40
0.045
309
GRIDFORMAT_END
309
TABLEFORMAT_END
  1
CELLSTYLE_BEGIN
 90
        2
 91
        1
300
_HEADER
309
CELLSTYLE_END
300
CELLSTYLE
  1
TABLEFORMAT_BEGIN
 90
        5
170
     1
 91
        0
 92
        0
 62
   257
 93
        1
300
CONTENTFORMAT
  1
CONTENTFORMAT_BEGIN
 90
        0
 91
        0
 92
        4
 93
        0
300

 40
0.0
140
1.0
 94
        2
 62
     0
340
11
144
4.5
309
CONTENTFORMAT_END
171
     1
301
MARGIN
  1
CELLMARGIN_BEGIN
 40
1.5
 40
1.5
 40
1.5
 40
1.5
 40
1.5
 40
1.5
309
CELLMARGIN_END
 94
        6
 95
        1
302
GRIDFORMAT
  1
GRIDFORMAT_BEGIN
 90
        0
 91
        1
 62
     0
 92
       -2
340
14
 93
        0
 40
0.045
309
GRIDFORMAT_END
 95
        2
302
GRIDFORMAT
  1
GRIDFORMAT_BEGIN
 90
        0
 91
        1
 62
     0
 92
       -2
340
14
 93
        0
 40
0.045
309
GRIDFORMAT_END
 95
        4
302
GRIDFORMAT
  1
GRIDFORMAT_BEGIN
 90
        0
 91
        1
 62
     0
 92
       -2
340
14
 93
        0
 40
0.045
309
GRIDFORMAT_END
 95
        8
302
GRIDFORMAT
  1
GRIDFORMAT_BEGIN
 90
        0
 91
        1
 62
     0
 92
       -2
340
14
 93
        0
 40
0.045
309
GRIDFORMAT_END
 95
       16
302
GRIDFORMAT
  1
GRIDFORMAT_BEGIN
 90
        0
 91
        1
 62
     0
 92
       -2
340
14
 93
        0
 40
0.045
309
GRIDFORMAT_END
 95
       32
302
GRIDFORMAT
  1
GRIDFORMAT_BEGIN
 90
        0
 91
        1
 62
     0
 92
       -2
340
14
 93
        0
 40
0.045
309
GRIDFORMAT_END
309
TABLEFORMAT_END
  1
CELLSTYLE_BEGIN
 90
        3
 91
        2
300
_DATA
309
CELLSTYLE_END
  0
XRECORD
  5
548
102
{ACAD_REACTORS
330
547
102
}
330
547
100
AcDbXrecord
280
     1
102
ACAD_ROUNDTRIP_PRE2007_TABLESTYLE
 90
        4
 91
        0
  1

 92
        4
 93
        0
  2

 94
        4
 95
        0
  3

  0
ENDSEC
  0
EOF
